Скачать Догвилль / Dogville (2003) HDTVRip-AVC от DHT-Movies бесплатно без регистрации




[font="georgia"]


Страна: Германия, Франция, Великобритания, Нидерланды, Испани
Режиссер: Ларс фон Триер / Lars von Trier

Аудио (Английский): 48 kHz, AC-3 Dolby Digital, 3/2 (L,C,R,l,r) + LFE ch, 384 kbps avgВидео: 1024x432 (2.35:1), 23.976 fps, MPEG-4 AVC 1928 kbps avg, 0.182 bit/pixel
Аудио (Русский): 48 kHz, AC-3 Dolby Digital, 3/2 (L,C,R,l,r) + LFE ch, 384 kbps avgВ ролях: Николь Кидман, Пол Беттани, Харриет Андерссон, Лорен Бэколл, Жан-Марк Барр, Блэр Браун, Джеймс Каан, Патришия Кларксон, Джереми Дэвис, Бен Газзара

Качество: HDTVRip-AVC
Год выпуска: 2003
Видео кодек: H.264
[Дубляж]
Формат: MKV
BuDuLie Оценка9.8 из 10 (4 голосов, самая низкая оценка - 9, самая высокая - 10) КатегорияЗарубежные фильмы Раздают2 Качают0 Сидер замечен12-06-2019 2:19:12 (4 минуты назад) Добавлен12-03-2011 20:50:06 (100 месяцев назад) Размер3.35 GB (3597791068 Bytes)Перевод: Профессиональный (полное дублирование) + Оригинал



Описание: 1930-е годы. Спасаясь от гангстеров, юная Грэйс оказывается в городке Догвилль где-то в Скалистых горах. Местные жители нехотя соглашаются приютить беглянку, если она будет работать на них, но затем их запросы становятся непомерными, а страх разоблачения превращает обывателей в жестоких подонков.
Постепенно Грэйс становится рабыней тихих обитателей Догвилля, убеждаясь, что в этом городе у доброты есть оборотная сторона. Однако никто не знает, как опасна может быть Грэйс. Вскоре Догвилль пожалеет, что посмел обнажить свои клыки…

Аудио кодек: AC3
Жанр: триллер, драма, детектив
[Оригинал]

Релиз группы
Продолжительность: 02:57:54
Автор рипа: capral555

Сэмпл

MediaInfo
Формат : Matroska
Размер файла : 3,35 Гбайт
Продолжительность : 2 ч. 57 м.
Общий поток : 2696 Кбит/сек
Дата кодирования : UTC 2011-02-28 19:40:26
Программа кодирования : mkvmerge v4.4.0 ('Die Wiederkehr') сборка от Oct 31 2010 21:52:48
Библиотека кодирования : libebml v1.0.0 + libmatroska v1.0.0

Видео
Идентификатор : 1
Формат : AVC
Формат/Информация : Advanced Video Codec
Профиль формата : High@L4.1
Параметр CABAC формата : Да
Параметр ReFrames формата : 8 кадры
Режим смешивания : Header stripping
Идентификатор кодека : V_MPEG4/ISO/AVC
Продолжительность : 2 ч. 57 м.
Битрейт : 1928 Кбит/сек
Ширина : 1024 пикс.
Высота : 432 пикс.
Соотношение сторон : 2,35:1
Частота кадров : 23,976 кадр/сек
Цветовое пространство : YUV
Подвыборка цветности : 4:2:0
Битовая глубина : 8 бит
Тип развёртки : Прогрессивная
Бит/(Пиксели*Кадры) : 0.182
Размер потока : 2,33 Гбайт (70%)
Библиотека кодирования : x264 core 112 r1867 22bfd31
Настройки программы : cabac=1 / ref=8 / deblock=1:-3:-1 / analyse=0x3:0x113 / me=umh / subme=10 / psy=1 / psy_rd=1.10:0.20 / mixed_ref=1 / me_range=32 / chroma_me=1 / trellis=2 / 8x8dct=1 / cqm=0 / deadzone=21,11 / fast_pskip=1 / chroma_qp_offset=-6 / threads=3 / sliced_threads=0 / nr=0 / decimate=1 / interlaced=0 / constrained_intra=0 / bframes=10 / b_pyramid=2 / b_adapt=2 / b_bias=0 / direct=2 / weightb=1 / open_gop=0 / weightp=2 / keyint=250 / keyint_min=23 / scenecut=40 / intra_refresh=0 / rc_lookahead=40 / rc=2pass / mbtree=1 / bitrate=1928 / ratetol=1.0 / qcomp=0.60 / qpmin=10 / qpmax=51 / qpstep=4 / cplxblur=20.0 / qblur=0.5 / ip_ratio=1.40 / aq=1:0.90
Язык : English

Аудио #1
Идентификатор : 2
Формат : AC-3
Формат/Информация : Audio Coding 3
Расширение режима : CM (complete main)
Режим смешивания : Header stripping
Идентификатор кодека : A_AC3
Продолжительность : 2 ч. 57 м.
Вид битрейта : Постоянный
Битрейт : 384 Кбит/сек
Канал(ы) : 6 канала(ов)
Расположение каналов : Front: L C R, Side: L R, LFE
Частота : 48,0 КГц
Битовая глубина : 16 бит
Метод сжатия : С потерями
Размер потока : 489 Мбайт (14%)
Заголовок : Дубляж
Язык : Russian

Аудио #2
Идентификатор : 3
Формат : AC-3
Формат/Информация : Audio Coding 3
Расширение режима : CM (complete main)
Режим смешивания : Header stripping
Идентификатор кодека : A_AC3
Продолжительность : 2 ч. 57 м.
Вид битрейта : Постоянный
Битрейт : 384 Кбит/сек
Канал(ы) : 6 канала(ов)
Расположение каналов : Front: L C R, Side: L R, LFE
Частота : 48,0 КГц
Битовая глубина : 16 бит
Метод сжатия : С потерями
Размер потока : 489 Мбайт (14%)
Заголовок : Английский
Язык : English

Текст
Идентификатор : 4
Формат : UTF-8
Идентификатор кодека : S_TEXT/UTF8
Идентификатор кодека/Информация : UTF-8 Plain Text
Язык : Russian
Скриншоты

[/font] Залил

Если у вас возникли проблемы с закачкой Догвилль / Dogville (2003) HDTVRip-AVC от DHT-Movies, перейдите по ссылке - там вы найдете решение своей проблемы.

Категория: Зарубежные фильмы

 

Скачать Догвилль / Dogville (2003) HDTVRip-AVC от DHT-Movies бесплатно без регистрации

 

Информация
Посетители, находящиеся в группе Гости, не могут оставлять комментарии к данной публикации.
 
 
Скачать Догвилль / Dogville (2003) HDTVRip-AVC от DHT-Movies бесплатно без регистрацииCopyright © 2019 .