Скачать Трупная вечеринка / Copusu pati / Corpse Party (2015) BDRip 1080p | L бесплатно без регистрации






Информация о фильме
Качество: BDRip 1080p
Перевод: Любительский (многоголосый закадровый) [den904, DeadSno, Izanami] по субтитрам akira9

Аудио#2: Japanese AC3, 48.0 khz, 2 ch, 640 kbps -Студия: CREi
Оригинальное название: Copusu pati / Corpse Party
РЕЛИЗ БЕЗ РЕКЛАМЫ!

О фильме:
В последний день школьного фестиваля учащиеся оказались заперты в здании школы, где ранее произошло ужасное убийство…



Видео: MPEG-4 AVC, 12 Мбит/с, 1920x1080, 23.976 кадр/с
Страна: Япония
Продолжительность: 01:34:11
Жанр: Ужасы
В ролях: Рёсукэ Икэока, Рина Икома, Чжун, Кадзухико Канаяма, Ёко Кита, Нозоми Маеда, Аю Матсуура, Сюнсаку Маяма, Рётаро, Рэина Виса

Аудио#1: Russian AC3, 48.0 khz, 2 ch, 192 kbps -Название: Трупная вечеринка
MVO, [den904, DeadSno, Izanami]
Кодек: x264
Звук:
Оригинал (японский)
corega ОценкаНикто ещё не поставил оценку КатегорияЗарубежные фильмы Раздают1 Качают0 Сидер замечен10-06-2019 23:19:12 (1 день назад) Добавлен02-07-2017 18:40:55 (24 месяца назад) Размер8.47 GB (9096376846 Bytes)Режиссер: Масафуми Ямада
Год выхода: 2015
Субтитры: Английские, японские

MediaInfoGeneral
Unique ID : 231190493157839179963093747854129878802 (0xADEDAB5B6031F7638F2D5F74BDE9D712)
Complete name : I:Corpse.Party.2015.L.BDRip.1080p.x264.Rus.Jpn.mkv
Format : Matroska
Format version : Version 4 / Version 2
File size : 8.47 GiB
Duration : 1 h 34 min
Overall bit rate : 12.9 Mb/s
Encoded date : UTC 2017-07-02 13:43:04
Writing application : mkvmerge v8.3.0 ('Over the Horizon') 32bit
Writing library : libebml v1.3.1 + libmatroska v1.4.2
Attachments : poster_rus.jpg / poster_jpn.jpg / DFPHuaZongW5-B5 1.0.2005.12.28.ttf / 方正中倩_GBK.ttf / 汉仪秀英体繁.ttf

Video
ID : 1
Format : AVC
Format/Info : Advanced Video Codec
Format profile : High@L4.1
Format settings, CABAC : Yes
Format settings, ReFrames : 4 frames
Codec ID : V_MPEG4/ISO/AVC
Duration : 1 h 34 min
Bit rate : 12.0 Mb/s
Width : 1 920 pixels
Height : 1 080 pixels
Display aspect ratio : 16:9
Frame rate mode : Constant
Frame rate : 23.976 (24000/1001) FPS
Color space : YUV
Chroma subsampling : 4:2:0
Bit depth : 8 bits
Scan type : Progressive
Bits/(Pixel*Frame) : 0.242
Stream size : 7.91 GiB (93%)
Writing library : x264 core 129 r2245+704+36 8e61944 tMod+MixAQ [8-bit@4:2:0 X86_64]
Encoding settings : cabac=1 / ref=4 / deblock=1:-3:-3 / analyse=0x3:0x133 / me=umh / subme=11 / psy=1 / fade_compensate=0.00 / psy_rd=1.05:0.10 / mixed_ref=1 / me_range=64 / chroma_me=1 / trellis=2 / 8x8dct=1 / cqm=0 / deadzone=21,11 / fast_pskip=0 / chroma_qp_offset=-3 / threads=12 / lookahead_threads=2 / sliced_threads=0 / nr=0 / decimate=0 / interlaced=0 / bluray_compat=0 / constrained_intra=0 / fgo=0 / bframes=10 / b_pyramid=2 / b_adapt=2 / b_bias=0 / direct=3 / weightb=1 / open_gop=0 / weightp=2 / keyint=250 / keyint_min=23 / scenecut=40 / intra_refresh=0 / rc=2pass / mbtree=0 / bitrate=12038 / ratetol=1.0 / qcomp=0.70 / qpmin=0 / qpmax=69 / qpstep=4 / cplxblur=20.0 / qblur=0.5 / ip_ratio=1.40 / pb_ratio=1.30 / aq=1 / aq-strength=0.85 / aq-sensitivity=10.00 / aq-ifactor=1.00 / aq-pfactor=1.00 / aq-bfactor=1.00 / aq2=0
Language : Japanese
Default : Yes
Forced : No

Audio #1
ID : 2
Format : AC-3
Format/Info : Audio Coding 3
Format settings, Endianness : Big
Codec ID : A_AC3
Duration : 1 h 34 min
Bit rate mode : Constant
Bit rate : 192 kb/s
Channel(s) : 2 channels
Channel positions : Front: L R
Sampling rate : 48.0 kHz
Frame rate : 31.250 FPS (1536 spf)
Bit depth : 16 bits
Compression mode : Lossy
Stream size : 129 MiB (1%)
Title : Любительский (многоголосый закадровый) [den904, DeadSno, Izanami]
Language : Russian
Service kind : Complete Main
Default : Yes
Forced : No

Audio #2
ID : 3
Format : AC-3
Format/Info : Audio Coding 3
Format settings, Endianness : Big
Codec ID : A_AC3
Duration : 1 h 34 min
Bit rate mode : Constant
Bit rate : 640 kb/s
Channel(s) : 2 channels
Channel positions : Front: L R
Sampling rate : 48.0 kHz
Frame rate : 31.250 FPS (1536 spf)
Bit depth : 16 bits
Compression mode : Lossy
Stream size : 431 MiB (5%)
Title : Original
Language : Japanese
Service kind : Complete Main
Default : No
Forced : No

Text #1
ID : 4
Format : UTF-8
Codec ID : S_TEXT/UTF8
Codec ID/Info : UTF-8 Plain Text
Duration : 1 h 28 min
Bit rate : 21 b/s
Count of elements : 593
Stream size : 14.1 KiB (0%)
Title : ENG
Language : English
Default : No
Forced : No

Text #2
ID : 5
Format : ASS
Codec ID : S_TEXT/ASS
Codec ID/Info : Advanced Sub Station Alpha
Duration : 1 h 30 min
Bit rate : 57 b/s
Count of elements : 654
Compression mode : Lossless
Stream size : 38.0 KiB (0%)
Title : JPN
Language : Japanese
Default : No
Forced : No

Menu
00:00:00.000 : en:00:00:00.000
00:16:27.653 : en:00:16:27.653
00:30:12.644 : en:00:30:12.644
00:42:07.316 : en:00:42:07.316
00:55:15.562 : en:00:55:15.562
01:07:19.827 : en:01:07:19.827
01:14:01.520 : en:01:14:01.520
01:19:34.811 : en:01:19:34.811

Скриншоты Залил

Если у вас возникли проблемы с закачкой Трупная вечеринка / Copusu pati / Corpse Party (2015) BDRip 1080p | L, перейдите по ссылке - там вы найдете решение своей проблемы.

Категория: Зарубежные фильмы

 

Скачать Трупная вечеринка / Copusu pati / Corpse Party (2015) BDRip 1080p | L бесплатно без регистрации

 

Информация
Посетители, находящиеся в группе Гости, не могут оставлять комментарии к данной публикации.
 
 
Скачать Трупная вечеринка / Copusu pati / Corpse Party (2015) BDRip 1080p | L бесплатно без регистрацииCopyright © 2019 .