Скачать OST - Элвин и бурундуки 2 / Alvin and the Chipmunks : The Squeakquel [Original Motion Picture Soundtrack] (2009) FLAC бесплатно без регистрации






We are Family
14. The Chipettes feat. Charice —It's OK
10. The Chipmunks and The Chipettes —Тип рипа : tracks +.cue
Hot N Cold
03. The Chipettes —Битрейт аудио : lossless
You Spin Me Round (Like a Record)
05. The Chipettes —Shake Your Groove Thing
11. The Chipettes —Put Your Records On
12. The Chipmunks —Год выпуска : 2009
You Really Got Me
02. The Chipettes —Stayin' Alive
08. The Chipettes feat. Queensberry —So What
04. The Chipmunks —I Want to Know What Love Is
13. The Chipmunks and The Chipettes —Исполнитель : Элвин и бурундуки

Страна : США
Bring It On
07. The Chipmunks —Жанр : Soundtrack
Страник 2.0 ОценкаНикто ещё не поставил оценку КатегорияМузыка Раздают1 Качают0 Сидер замечен11-06-2019 22:19:12 (3 часа назад) Добавлен11-08-2012 15:17:08 (83 месяца назад) Размер357.32 MB (374672341 Bytes)Аудио кодек : FLAC
Продолжительность : 00:50:15



Треклист :

01. The Chipmunks feat. Honor Society —I Gotta Feeling



EAC.log
Exact Audio Copy V0.99 prebeta 5 from 4. May 2009

EAC extraction logfile from 31. December 2009, 18:00

Various / Alvin and the Chipmunks

Used drive : Optiarc DVD RW AD-5240S Adapter: 5 ID: 1

Read mode : Secure
Utilize accurate stream : Yes
Defeat audio cache : Yes
Make use of C2 pointers : No

Read offset correction : 48
Overread into Lead-In and Lead-Out : No
Fill up missing offset samples with silence : Yes
Delete leading and trailing silent blocks : No
Null samples used in CRC calculations : Yes
Used interface : Native Win32 interface for Win NT & 2000
Gap handling : Appended to previous track

Used output format : Internal WAV Routines
Sample format : 44.100 Hz; 16 Bit; Stereo

TOC of the extracted CD

Track | Start | Length | Start sector | End sector
---------------------------------------------------------
1 | 0:00.00 | 2:41.19 | 0 | 12093
2 | 2:41.19 | 3:53.07 | 12094 | 29575
3 | 6:34.26 | 3:37.63 | 29576 | 45913
4 | 10:12.14 | 3:13.37 | 45914 | 60425
5 | 13:25.51 | 2:57.01 | 60426 | 73701
6 | 16:22.52 | 3:46.43 | 73702 | 90694
7 | 20:09.20 | 2:46.17 | 90695 | 103161
8 | 22:55.37 | 3:05.38 | 103162 | 117074
9 | 26:01.00 | 2:47.61 | 117075 | 129660
10 | 28:48.61 | 3:52.02 | 129661 | 147062
11 | 32:40.63 | 3:34.20 | 147063 | 163132
12 | 36:15.08 | 2:53.13 | 163133 | 176120
13 | 39:08.21 | 3:02.24 | 176121 | 189794
14 | 42:10.45 | 3:59.53 | 189795 | 207772
15 | 46:10.23 | 4:05.15 | 207773 | 226162

Track 1

Filename Y:/01 - The Chipmunks feat Honor Society - You Really Got Me - The Chipmunks feat Honor Society - You Really Got Me.wav

Pre-gap length 0:00:02.00

Peak level 99.9 %
Track quality 100.0 %
Test CRC E726F69A
Copy CRC E726F69A
Track not present in AccurateRip database
Copy OK

Track 2

Filename Y:/02 - The Chipettes - Hot N Cold - The Chipettes - Hot N Cold.wav

Peak level 99.9 %
Track quality 99.9 %
Test CRC 314F3928
Copy CRC 314F3928
Track not present in AccurateRip database
Copy OK

Track 3

Filename Y:/03 - The Chipettes - So What - The Chipettes - So What.wav

Peak level 99.9 %
Track quality 99.9 %
Test CRC 1851399B
Copy CRC 1851399B
Track not present in AccurateRip database
Copy OK

Track 4

Filename Y:/04 - The Chipmunks - You Spin Me Round (Like a Record) - The Chipmunks - You Spin Me Round (Like a Record).wav

Peak level 99.9 %
Track quality 100.0 %
Test CRC 6790B0E0
Copy CRC 6790B0E0
Track not present in AccurateRip database
Copy OK

Track 5

Filename Y:/05 - The Chipettes - Single Ladies (Put a Ring on It) - The Chipettes - Single Ladies (Put a Ring on It).wav

Peak level 99.9 %
Track quality 100.0 %
Test CRC 965D38AB
Copy CRC 965D38AB
Track not present in AccurateRip database
Copy OK

Track 6

Filename Y:/06 - The Chipmunks - Bring It On - The Chipmunks - Bring It On.wav

Peak level 99.9 %
Track quality 100.0 %
Test CRC DE0BA6E5
Copy CRC DE0BA6E5
Track not present in AccurateRip database
Copy OK

Track 7

Filename Y:/07 - The Chipmunks - Stayin' Alive - The Chipmunks - Stayin' Alive.wav

Peak level 99.9 %
Track quality 100.0 %
Test CRC 14867685
Copy CRC 14867685
Track not present in AccurateRip database
Copy OK

Track 8

Filename Y:/08 - The Chipettes feat Queensberry - The Song - The Chipettes feat Queensberry - The Song.wav

Peak level 99.9 %
Track quality 100.0 %
Test CRC 5414A847
Copy CRC 5414A847
Track not present in AccurateRip database
Copy OK

Track 9

Filename Y:/09 - The Chipmunks - It's OK - The Chipmunks - It's OK.wav

Peak level 99.9 %
Track quality 100.0 %
Test CRC 0D07F8B4
Copy CRC 0D07F8B4
Track not present in AccurateRip database
Copy OK

Track 10

Filename Y:/10 - The Chipmunks and The Chipettes - Shake Your Groove Thing - The Chipmunks and The Chipettes - Shake Your Groove Thing.wav

Peak level 99.9 %
Track quality 100.0 %
Test CRC A16DB719
Copy CRC A16DB719
Track not present in AccurateRip database
Copy OK

Track 11

Filename Y:/11 - The Chipettes - Put Your Records On - The Chipettes - Put Your Records On.wav

Peak level 99.9 %
Track quality 100.0 %
Test CRC 5DEEE1A7
Copy CRC 5DEEE1A7
Track not present in AccurateRip database
Copy OK

Track 12

Filename Y:/12 - The Chipmunks - I Want to Know What Love Is - The Chipmunks - I Want to Know What Love Is.wav

Peak level 99.9 %
Track quality 100.0 %
Test CRC 32ACDCFA
Copy CRC 32ACDCFA
Track not present in AccurateRip database
Copy OK

Track 13

Filename Y:/13 - The Chipmunks and The Chipettes - We are Family - The Chipmunks and The Chipettes - We are Family.wav

Peak level 99.9 %
Track quality 100.0 %
Test CRC E292EC72
Copy CRC E292EC72
Track not present in AccurateRip database
Copy OK

Track 14

Filename Y:/14 - The Chipettes feat Charice - No One - The Chipettes feat Charice - No One.wav

Peak level 99.9 %
Track quality 100.0 %
Test CRC 9C0E9228
Copy CRC 9C0E9228
Track not present in AccurateRip database
Copy OK

Track 15

Filename Y:/15 - The Chipmunks and The Chipettes - I Gotta Feeling - The Chipmunks and The Chipettes - I Gotta Feeling.wav

Pre-gap length 0:00:01.63

Peak level 99.9 %
Track quality 100.0 %
Test CRC 980DEEBF
Copy CRC 980DEEBF
Track not present in AccurateRip database
Copy OK

None of the tracks are present in the AccurateRip database

No errors occurred

End of status report
.cue
REM ACCURATERIPID 001b0b41-0132d50c-c90bc70f
REM GENRE "Soundtrack"
REM DATE 2009
REM DISCID C90BC70F
REM COMMENT "ExactAudioCopy v0.99pb5"
TITLE "Alvin and the Chipmunks: The Squeakquel"

FILE "01 - You Really Got Me.flac" WAVE
TRACK 01 AUDIO
PERFORMER "The Chipmunks feat. Honor Society"
TITLE "You Really Got Me"
INDEX 01 00:00:00

FILE "02 - Hot N Cold.flac" WAVE
TRACK 02 AUDIO
PERFORMER "The Chipettes"
TITLE "Hot N Cold"
INDEX 01 00:00:00

FILE "03 - So What.flac" WAVE
TRACK 03 AUDIO
PERFORMER "The Chipettes"
TITLE "So What"
INDEX 01 00:00:00

FILE "04 - You Spin Me Round (Like a Record).flac" WAVE
TRACK 04 AUDIO
PERFORMER "The Chipmunks"
TITLE "You Spin Me Round (Like a Record)"
INDEX 01 00:00:00

FILE "05 - Single Ladies (Put a Ring on It).flac" WAVE
TRACK 05 AUDIO
PERFORMER "The Chipettes"
TITLE "Single Ladies (Put a Ring on It)"
INDEX 01 00:00:00

FILE "06 - Bring It On.flac" WAVE
TRACK 06 AUDIO
PERFORMER "The Chipmunks"
TITLE "Bring It On"
INDEX 01 00:00:00

FILE "07 - Stayin' Alive.flac" WAVE
TRACK 07 AUDIO
PERFORMER "The Chipmunks"
TITLE "Stayin' Alive"
INDEX 01 00:00:00

FILE "08 - The Song.flac" WAVE
TRACK 08 AUDIO
PERFORMER "The Chipettes feat. Queensberry"
TITLE "The Song"
INDEX 01 00:00:00

FILE "09 - It's OK.flac" WAVE
TRACK 09 AUDIO
PERFORMER "The Chipmunks"
TITLE "It's OK"
INDEX 01 00:00:00

FILE "10 - Shake Your Groove Thing.flac" WAVE
TRACK 10 AUDIO
PERFORMER "The Chipmunks and The Chipettes"
TITLE "Shake Your Groove Thing"
INDEX 01 00:00:00

FILE "11 - Put Your Records On.flac" WAVE
TRACK 11 AUDIO
PERFORMER "The Chipettes"
TITLE "Put Your Records On"
INDEX 01 00:00:00

FILE "12 - I Want to Know What Love Is.flac" WAVE
TRACK 12 AUDIO
PERFORMER "The Chipmunks"
TITLE "I Want to Know What Love Is"
INDEX 01 00:00:00

FILE "13 - We are Family.flac" WAVE
TRACK 13 AUDIO
PERFORMER "The Chipmunks and The Chipettes"
TITLE "We are Family"
INDEX 01 00:00:00

FILE "14 - No One.flac" WAVE
TRACK 14 AUDIO
PERFORMER "The Chipettes feat. Charice"
TITLE "No One"
INDEX 01 00:00:00

TRACK 15 AUDIO
PERFORMER "The Chipmunks and The Chipettes"
TITLE "I Gotta Feeling"
INDEX 00 03:57:65
FILE "15 - I Gotta Feeling.flac" WAVE
INDEX 01 00:00:00



ЗалилSingle Ladies (Put a Ring on It)
06. The Chipmunks —No One
15. The Chipmunks and The Chipettes —The Song
09. The Chipmunks —

Если у вас возникли проблемы с закачкой OST - Элвин и бурундуки 2 / Alvin and the Chipmunks : The Squeakquel [Original Motion Picture Soundtrack] (2009) FLAC, перейдите по ссылке - там вы найдете решение своей проблемы.

Категория: Музыка

 

Скачать OST - Элвин и бурундуки 2 / Alvin and the Chipmunks : The Squeakquel [Original Motion Picture Soundtrack] (2009) FLAC бесплатно без регистрации

 

Информация
Посетители, находящиеся в группе Гости, не могут оставлять комментарии к данной публикации.
 
 
Скачать OST - Элвин и бурундуки 2 / Alvin and the Chipmunks : The Squeakquel [Original Motion Picture Soundtrack] (2009) FLAC бесплатно без регистрацииCopyright © 2019 .