Скачать Полуночники / Midnighters (2017) WEBRip 720p | L2 бесплатно без регистрации






Информация о фильме
Оригинальное название: Midnighters

Семпл

MediaInfo:
General
Unique ID : 230346941684355098342953948568337190955 (0xAD4B350EE98565078696FF1F6993102B)
Complete name : E:Midnighters.2017.720p.WEBRip.HiWayGropeMidnighters.2017.720p.WEBRip.HiWayGrope.mkv
Format : Matroska
Format version : Version 4 / Version 2
File size : 2.46 GiB
Duration : 1h 34mn
Overall bit rate : 3 747 Kbps
Encoded date : UTC 2018-03-07 15:30:00
Writing application : mkvmerge v18.0.0 ('Apricity') 64-bit
Writing library : libebml v1.3.5 + libmatroska v1.4.8

Video
ID : 1
Format : AVC
Format/Info : Advanced Video Codec
Format profile : Main@L4.1
Format settings, CABAC : Yes
Format settings, ReFrames : 4 frames
Codec ID : V_MPEG4/ISO/AVC
Duration : 1h 34mn
Bit rate : 3 289 Kbps
Width : 1 280 pixels
Height : 530 pixels
Display aspect ratio : 2.40:1
Frame rate mode : Constant
Frame rate : 23.976 (24000/1001) fps
Standard : NTSC
Color space : YUV
Chroma subsampling : 4:2:0
Bit depth : 8 bits
Scan type : Progressive
Bits/(Pixel*Frame) : 0.202
Stream size : 2.16 GiB (88%)
Language : English
Default : Yes
Forced : No
Color range : Limited
Color primaries : BT.601 NTSC
Transfer characteristics : BT.601
Matrix coefficients : BT.601

Audio
ID : 2
Format : AC-3
Format/Info : Audio Coding 3
Mode extension : CM (complete main)
Format settings, Endianness : Big
Codec ID : A_AC3
Duration : 1h 34mn
Bit rate mode : Constant
Bit rate : 384 Kbps
Channel(s) : 6 channels
Channel positions : Front: L C R, Side: L R, LFE
Sampling rate : 48.0 KHz
Frame rate : 31.250 fps (1536 spf)
Compression mode : Lossy
Stream size : 258 MiB (10%)
Title : rus
Language : Russian
Default : Yes
Forced : No

Скриншоты


Кодек: MPEG-4 AVC/H.264
skyn s61 Оценка6.5 из 10 (2 голосов, самая низкая оценка - 3, самая высокая - 10) КатегорияЗарубежные фильмы Раздают1 Качают0 Сидер замечен12-06-2019 1:19:12 (4 минуты назад) Добавлен07-03-2018 18:52:18 (15 месяцев назад) Размер2.46 GB (2643486136 Bytes)Субтитры: отсутствуют

Год выхода: 2017
Страна: США, Graystone Pictures
Видео: 1280x530, 23.976 fps, ~3289 kbps, 0.202 bit/pixel
Качество: WEBRip 720p
Релиз от: HiWay Grope ЗалилЗвук:
Аудио rus: AC3, 48 kHz, 6 ch, 384 Kbps
В ролях: Александра Эссоу, Перла Аней-Жардине, Дилан МакТи, Уорд Хортон, Эндрю Ротенберг, Джозеф Андерсон, К.С. Фальдаш, Уильям Блумфилд, Дэвид Спорадора, Мэтт Майерс и другие
Реклама: присутствует

ВНИМАНИЕ! Присутствует ненормативная лексика

Название: Полуночники
Перевод: Любительский (двухголосый закадровый) | HiWay Grope

О фильме:
Возвращаясь на машине с новогоднего корпоратива, Линдси и Джэфф сбивают незнакомца на пустынной дороге. Телефон там не ловит, поэтому они затаскивают пострадавшего в машину и везут в больницу, но по дороге бедолага перестаёт дышать. Тогда парочка решает протрезветь, прежде чем сдаться полиции, и отвозит тело к себе в гараж. Тем временем младшая сестра Линдси приходит домой, и на нее нападает оказавшийся живым сбитый незнакомец.



Продолжительность: 01:34:03
Жанр: триллер
Режиссер: Джулиус Рамсей

Если у вас возникли проблемы с закачкой Полуночники / Midnighters (2017) WEBRip 720p | L2, перейдите по ссылке - там вы найдете решение своей проблемы.

Категория: Зарубежные фильмы

 

Скачать Полуночники / Midnighters (2017) WEBRip 720p | L2 бесплатно без регистрации

 

Информация
Посетители, находящиеся в группе Гости, не могут оставлять комментарии к данной публикации.
 
 
Скачать Полуночники / Midnighters (2017) WEBRip 720p | L2 бесплатно без регистрацииCopyright © 2019 .