Скачать Силы природы / Forces of Nature (1999) HDTVRip-AVC | P бесплатно без регистрации





Год выхода: 1999
Оригинальное название: Forces of Nature
Звук: AAC-HE, 2 ch, 72 Кбит/с


General
Unique ID : 84523977751147150501568655912197248826 (0x3F96B9D9A05C61EE2D52ADDD6165573A)
Complete name : D:КЭШСилы природы.mkv
Format : Matroska
Format version : Version 4 / Version 2
File size : 745 MiB
Duration : 1 h 41 min
Overall bit rate : 1 026 kb/s
Encoded date : UTC 2019-03-16 15:07:58
Writing application : mkvmerge v25.0.0 ('Prog Noir') 64-bit
Writing library : libebml v1.3.6 + libmatroska v1.4.9
Attachments : poster.png

Video
ID : 1
Format : AVC
Format/Info : Advanced Video Codec
Format profile : High@L4.1
Format settings : CABAC / 12 Ref Frames
Format settings, CABAC : Yes
Format settings, ReFrames : 12 frames
Codec ID : V_MPEG4/ISO/AVC
Duration : 1 h 41 min
Bit rate : 951 kb/s
Width : 720 pixels
Height : 406 pixels
Display aspect ratio : 16:9
Frame rate mode : Constant
Frame rate : 25.000 FPS
Color space : YUV
Chroma subsampling : 4:2:0
Bit depth : 8 bits
Scan type : Progressive
Bits/(Pixel*Frame) : 0.130
Stream size : 691 MiB (93%)
Writing library : x264 core 152 r2851 ba24899
Encoding settings : cabac=1 / ref=12 / deblock=1:-3:-3 / analyse=0x3:0x133 / me=umh / subme=11 / psy=1 / psy_rd=1.00:0.15 / mixed_ref=1 / me_range=48 / chroma_me=1 / trellis=2 / 8x8dct=1 / cqm=0 / deadzone=21,11 / fast_pskip=0 / chroma_qp_offset=-3 / threads=6 / lookahead_threads=1 / sliced_threads=0 / nr=0 / decimate=0 / interlaced=0 / bluray_compat=0 / constrained_intra=0 / bframes=11 / b_pyramid=2 / b_adapt=2 / b_bias=0 / direct=3 / weightb=1 / open_gop=0 / weightp=2 / keyint=240 / keyint_min=23 / scenecut=40 / intra_refresh=0 / rc=2pass / mbtree=0 / bitrate=951 / ratetol=1.0 / qcomp=0.60 / qpmin=0 / qpmax=69 / qpstep=4 / cplxblur=20.0 / qblur=0.5 / ip_ratio=1.40 / pb_ratio=1.30 / aq=1:1.00
Default : Yes
Forced : No

Audio
ID : 2
Format : AAC
Format/Info : Advanced Audio Codec
Format profile : HE-AAC / LC
Format settings : Explicit
Codec ID : A_AAC-2
Duration : 1 h 41 min
Bit rate : 72.0 kb/s
Channel(s) : 2 channels
Channel positions : Front: L R
Sampling rate : 48.0 kHz / 24.0 kHz
Frame rate : 23.438 FPS (1024 SPF)
Compression mode : Lossy
Delay relative to video : 31 ms
Stream size : 52.3 MiB (7%)
Default : Yes
Forced : No


Оценка10 из 10 (3 голосов, самая низкая оценка - 10, самая высокая - 10) КатегорияЗарубежные фильмы Раздают4 Качают1 Сидер замечен11-06-2019 16:19:12 (27 минут назад) Добавлен16-03-2019 18:45:24 (3 месяца назад) Размер745.48 MB (781697608 Bytes)Качество: HDTVRip-AVC
Кодек: x.264
Жанр: Мелодрама, комедия
Название: Силы природы
Видео: MPEG-4 AVC, 951 Кбит/с, 720x406, 0.130 bit/pixel
В ролях: Бен Аффлек, Сандра Буллок, Мора Тирни, Стив Зан, Блайт Даннер, Ронни Кокс, Майкл Фэйрмэн, Ричард Шифф, Афина Мария Бицис, Афемо Омилами

Продолжительность: 01:45:54
Перевод: Профессиональный(многоголосый закадровый)


О фильме:
У героя этой картины, Бена, в запасе всего два дня, чтобы добраться из Нью-Йорка в городок Саванна, что в штате Джорджия, и успеть на собственную свадьбу с прекрасной девушкой. Но внезапно на его пути возникает непреодолимое препятствие в лице разбушевавшейся природы. Самолет, в котором герой отправляется к своей невесте, попадает в аварию.
Теперь Бену и его новой эксцентричной попутчице, по имени Сара, предстоит захватывающее совместное путешествие. Атмосферные катаклизмы и дорожные происшествия продолжают неотступно преследовать их в пути. А тут еще Бен с ужасом начинает осознавать, что влюбляется в Сару…



Режиссер: Бронуэн Хьюз
Студия: DreamWorks SKG, Roth-Arnold Productions
Страна: США

Если у вас возникли проблемы с закачкой Силы природы / Forces of Nature (1999) HDTVRip-AVC | P, перейдите по ссылке - там вы найдете решение своей проблемы.

Категория: Зарубежные фильмы

 

Скачать Силы природы / Forces of Nature (1999) HDTVRip-AVC | P бесплатно без регистрации

 

Информация
Посетители, находящиеся в группе Гости, не могут оставлять комментарии к данной публикации.
 
 
Скачать Силы природы / Forces of Nature (1999) HDTVRip-AVC | P бесплатно без регистрацииCopyright © 2019 .