Скачать Бой под Соколом (1942) DVDRip от New-Team бесплатно без регистрации





Описание:
Герои фильма, тимуровцы, действуют в обстановке Великой Отечественной войны.



Исходник:Аудио: 48 kHz, Dolby Digital AC3 2.0, 192 kbps

Производство: Союздетфильм

Тип релиза:Контейнер: AVI

DVD5 R5
Перевод: не требуется
Продолжительность: 00:51:14

Раздача от:
MediaInfo
Общее
Полное имя : Boy.pod.Sokolom.1942.DVDRip_[New-team]_by_AVP_Studio.avi
Формат : AVI
Формат/Информация : Audio Video Interleave
Размер файла : 745 Мбайт
Продолжительность : 51 м.
Общий поток : 2032 Кбит/сек
Программа кодирования : VirtualDubModRus 1.5.10.2 (build 2542/release)
Библиотека кодирования : VirtualDubMod build 2542/release

Видео
Идентификатор : 0
Формат : MPEG-4 Visual
Профиль формата : Advanced Simple@L5
Параметр BVOP формата : 1
Параметр QPel формата : Нет
Параметр GMC формата : Без точки перехода
Параметр матрицы формата : Выборочная
Идентификатор кодека : XVID
Идентификатор кодека/Подсказка : XviD
Продолжительность : 51 м.
Битрейт : 1830 Кбит/сек
Ширина : 688 пикселей
Высота : 512 пикселей
Соотношение сторон : 4:3
Частота кадров : 25,000 кадров/сек
Цветовое пространство : YUV
Субдискретизация насыщенности : 4:2:0
Битовая глубина : 8 бит
Тип развёртки : Прогрессивная
Метод сжатия : С потерями
Бит/(Пиксели*Кадры) : 0.208
Размер потока : 671 Мбайт (90%)
Библиотека кодирования : XviD 73

Аудио
Идентификатор : 1
Формат : AC-3
Формат/Информация : Audio Coding 3
Расширение режима : CM (complete main)
Параметр Endianness формата : Big
Идентификатор кодека : 2000
Продолжительность : 51 м.
Вид битрейта : Постоянный
Битрейт : 192 Кбит/сек
Каналы : 2 канала
Расположение каналов : Front: L R
Частота : 48,0 КГц
Битовая глубина : 16 бит
Метод сжатия : С потерями
Размер потока : 70,4 Мбайт (9%)
Выравнивание : Разделение по промежуткам
Продолжительность промежутка : 40 мс. (1,00 видеокадр)
Время предзагрузки промежутка : 500 мс

Скриншоты

ЗалилAVPStudio ОценкаНикто ещё не поставил оценку КатегорияНаши фильмы Раздают0 Качают2 Сидер замечен19-06-2016 15:19:07 (36 месяцев назад) Добавлен01-12-2014 16:01:00 (55 месяцев назад) Размер744.55 MB (780713984 Bytes)Жанр: военный
Режиссер: Александр Разумный

Год выпуска: 1942
Оригинальная аудиодорожка: русский
Страна: СССР
DVDRip
Видео: 688x512 (4:3), 25 fps, XviD ~ 1830 kbps avg, 0.208 bit/pixel
Cубтитры: нет

В ролях:
Виктор Бойко, Коля Леонов, Толя Городулин, Женька Хват, Петя Гороховский, Боря Афанасьев, М. Белоусов, А. Таршин...

Если у вас возникли проблемы с закачкой Бой под Соколом (1942) DVDRip от New-Team, перейдите по ссылке - там вы найдете решение своей проблемы.

Категория: Наши фильмы

 

Скачать Бой под Соколом (1942) DVDRip от New-Team бесплатно без регистрации

 

Информация
Посетители, находящиеся в группе Гости, не могут оставлять комментарии к данной публикации.
 
 
Скачать Бой под Соколом (1942) DVDRip от New-Team бесплатно без регистрацииCopyright © 2019 .