Скачать Елена Прекрасная (2017) WEB-DLRip от ImperiaFilm бесплатно без регистрации






Информация о фильме
Frame rate : 25.000 FPS
Writing library : LAME3.99r
Encoding settings : -m s -V 4 -q 2 -lowpass 17 -b 128Скриншоты

Writing library : VirtualDubMod build 2550/release

Video
Writing library : XviD 73

Audio
Compression mode : Lossy
File size : 745 MiB
Перевод: Не требуется

Режиссер: Павел Мальков
Complete name : D:Изготовление рипаElena Prekrasnaya 2017.WEB-DLRip by shkiper.avi
Codec ID : XVID
Format settings, Matrix : Custom
Bit rate : 1 012 kb/s
Interleave, duration : 40 ms (1.00 video frame)
Качество: WEB-DLRip
ID : 0
Студия: Кинокомпания "Русское"
Продолжительность: 01:30:38
Format settings, GMC : No warppoints
Writing application : VirtualDubMod 1.5.10.3 | www.virtualdub-fr.org || (build 2550/release)
Interleave, preload duratio : 504 ms
Format/Info : Audio Video Interleave
Format : AVI
Alignment : Aligned on interleaves
Format profile : Advanced Simple@L5
Жанр: Мелодрама
Duration : 1 h 30 min
Chroma subsampling : 4:2:0
Codec ID/Hint : MP3
Релиз от: ЗалилFormat profile : Layer 3
Субтитры: Отсутствуют

Format version : Version 1
Codec ID/Hint : XviD
Format : MPEG Audio
Codec ID : 55
Stream size : 656 MiB (88%)
Format settings, BVOP : 1
Bit rate : 128 kb/s
Страна: Россия
Overall bit rate : 1 150 kb/s
Format settings, QPel : No
Bits/(Pixel*Frame) : 0.184
Кодек: XviD
surikmas ОценкаНикто ещё не поставил оценку КатегорияНаши фильмы Раздают1 Качают0 Сидер замечен11-06-2019 17:19:12 (4 минуты назад) Добавлен25-05-2017 8:45:30 (25 месяцев назад) Размер745.23 MB (781426688 Bytes)Семпл

MIGeneral
Sampling rate : 48.0 kHz
Height : 352 pixels
Color space : YUV
Duration : 1 h 30 min
Channel(s) : 2 channels
О фильме:
Елена Соколова (Елена Радевич) – успешная модель и звезда подиума, накануне важного контракта узнает, что ждет ребенка. Девушка оказывается перед выбором: уехать в Париж и стать лицом известной французской фирмы, либо навсегда распрощаться с модельным бизнесом и рожать без мужа. Проходит семь лет. Елена больше не модель, она работает в салоне красоты, у нее есть замечательная дочка Оля и любящий муж Костя (Валентин Кузнецов), ее бывший поклонник. Но спокойная семейная жизнь Елены заканчивается после встречи с богатым бизнесменом Андреем (Владислав Резник). Елена уходит от мужа, а брошенный Костя решается на отчаянный и ужасный поступок…



Compression mode : Lossy
Display aspect ratio : 16:9
Stream size : 83.0 MiB (11%)
Название: Елена Прекрасная
Год выхода: 2017
Scan type : Progressive
ID : 1
Width : 624 pixels
Bit depth : 8 bits
Видео: 624x352 (1.77:1), 25 fps, XviD build 73 ~1011 kbps avg, 0.18 bit/pixel
Duration : 1 h 30 min
Звук: 48 kHz, MPEG Layer 3, 2 ch, ~128.00 kbps avg
Format : MPEG-4 Visual
Bit rate mode : Constant
В ролях: Елена Радевич, Владислав Резник, Наталья Высочанская, Валентин Кузнецов (III), Кира Кауфман, Алексей Федькин

Если у вас возникли проблемы с закачкой Елена Прекрасная (2017) WEB-DLRip от ImperiaFilm, перейдите по ссылке - там вы найдете решение своей проблемы.

Категория: Наши фильмы

 

Скачать Елена Прекрасная (2017) WEB-DLRip от ImperiaFilm бесплатно без регистрации

 

Информация
Посетители, находящиеся в группе Гости, не могут оставлять комментарии к данной публикации.
 
 
Скачать Елена Прекрасная (2017) WEB-DLRip от ImperiaFilm бесплатно без регистрацииCopyright © 2019 .