Скачать Убей ради меня / Kill for Me (2013) DVD5 сжатый | Лицензия бесплатно без регистрации






Релиз:
Дополнительная информация :
Оператор: Джеймс Листон
Исходник : DVD9 (4.7 Гб) [лицензия, PAL 16:9]
Композитор: Майкл Брук
Качество: Название: Убей ради меня
Субтитры: Ukrainian, English, Arabic, Greek, Hebrew, Hindi, Islenska, Polish, Romanian, Turkish
Убрано : предупреждения, English / Polish (Dolby AC3, 6 ch).
Страна: Канада
Аудио: Dolby AC3, 6 ch, 448 Kbps Russian
axeRelax Оценка10 из 10 (2 голосов, самая низкая оценка - 10, самая высокая - 10) КатегорияЗарубежные фильмы Раздают0 Качают1 Сидер замечен02-05-2016 20:19:05 (38 месяцев назад) Добавлен17-03-2013 11:15:18 (76 месяцев назад) Размер4.34 GB (4664537088 Bytes)Формат: DVD Video
Оригинальное название: Kill for Me
Сжатие фильма : Видео: MPEG2; PAL 16:9 (720x576)
Год выпуска: 2013
Описание: Две соседки по комнате планируют убийства людей из своего прошлого, чтобы помочь решить проблемы друг друга.


Режиссер: Майкл Гринспен
MPAA: R
Жанр: триллер, драма
Продюсер: Кайл Мэнн, Брайан Брукс, Мишель Фатерман
нет

использовались программыDVDRemakePro
Photoshop
MuxMan
Работоспособность проверена на софтовом плеере Windows Media и бытовом LGDVDInfoTitle: Ubei.radi.menja_2013_DVD5.[R.G.Daredevil]
Size: 4.34 Gb ( 4 555 212,00 KBytes ) - DVD-5
Enabled regions: 1, 2, 3, 4, 5, 6, 7, 8

VTS_01 :
Play Length: 01:31:04
Video: PAL 16:9 (720x576) VBR, Auto Letterboxed
Audio:
English (Dolby AC3, 6 ch)
Polish (Dolby AC3, 6 ch)
Subtitles:
English
Arabic
Greek
Hebrew
Hindi
Islenska
Polish
Romanian
Turkish
Ukrainian
Russian

VTS_02 :
Play Length: 00:12:56+00:00:00+00:00:00+00:00:00+00:00:00+00:00:00+00:00:00+00:00:00+00:00:00+00:00:00+{00:00:00}+{00:00:00}
Video: PAL 16:9 (720x576) VBR, Auto Letterboxed
Audio:
English (Dolby AC3, 2 ch)
Subtitles:
English

VTS_03 :
Play Length: 00:00:00+00:00:00+00:00:00+00:00:00+00:00:00+00:00:00
Video: PAL 16:9 (720x576) VBR, Auto Letterboxed

VTS_04 :
Play Length: 00:00:00+00:00:00+00:00:00+00:00:00+00:00:00+00:00:00+00:00:00+00:00:00+00:00:00
Video: PAL 16:9 (720x576) VBR, Auto Letterboxed

VTS_05 :
Play Length: 00:00:00+00:00:00+00:00:00+00:00:00+00:00:00+00:00:00+00:00:00+00:00:00+00:00:00
Video: PAL 16:9 (720x576) VBR, Auto Letterboxed

VTS_06 :
Play Length: 00:00:00+00:00:00+00:00:00+00:00:00
Video: PAL 16:9 (720x576) VBR, Auto Letterboxed

VTS_07 :
Play Length: 00:00:00+00:00:00+00:00:00+00:00:00
Video: PAL 16:9 (720x576) VBR, Auto Letterboxed

VTS_08 :
Play Length: 00:00:01+00:00:00+00:00:00+00:00:00+00:00:00+00:00:00+00:00:00+00:00:00
Video: PAL 16:9 (720x576) VBR, Auto Letterboxed

VTS_09 :
Play Length: 00:00:01+00:00:00+00:00:00
Video: PAL 16:9 (720x576) VBR, Auto Letterboxed

VTS_10 :
Play Length: 00:00:01+00:00:00+00:00:00+00:00:00+00:00:00
Video: PAL 4:3 (720x576) VBR

VTS_11 :
Play Length: 00:00:01+00:00:00+00:00:00+00:00:00+00:00:00
Video: PAL 4:3 (720x576) VBR

VTS_12 :
Play Length: 00:00:00
Video: PAL 16:9 (720x576) VBR, Auto Letterboxed

VTS_13 :
Play Length: 00:00:00
Video: PAL 16:9 (720x576) VBR, Auto Letterboxed

VTS_14 :
Play Length: 00:00:00+00:00:00+00:00:00+00:00:00+00:00:00+00:00:00+00:00:00+00:00:00+{00:00:00}+{00:00:00}+{00:00:00}+{00:00:00}+{00:00:00}+{00:00:00}+{00:00:00}+{00:00:00}+{00:00:00}+00:00:00+00:00:00+00:00:00+00:00:00+00:00:00+00:00:00+00:00:00+00:00:00+00:00:00+00:00:00+00:00:00+00:00:00+00:00:00+00:00:00+00:00:00+{00:00:00}+00:00:00+00:00:00+00:00:00+00:00:00+00:00:00+00:00:00+{00:00:00}
Video: PAL 16:9 (720x576) VBR, Auto Letterboxed
Audio:
Not specified (Dolby AC3, 2 ch)

VTS_15 :
Play Length: 00:00:00+00:00:00+00:00:00
Video: PAL 4:3 (720x576) VBR

VTS_16 :
Play Length: 00:00:00+00:00:00+00:00:00+00:00:00+00:00:00+00:00:00+00:00:00+00:00:00+00:00:00+00:00:00+00:00:00+00:00:00+00:00:00+00:00:00+00:00:00+00:00:00+00:00:00+00:00:00+00:00:00+00:00:00+00:00:00+00:00:00+00:00:00+00:00:00+00:00:00+00:00:00+00:00:00+00:00:00+00:00:00
Video: PAL 16:9 (720x576) VBR, Auto Letterboxed
Audio:
Not specified (Dolby AC3, 2 ch)

VTS_17 :
Play Length: 00:00:00
Video: PAL 16:9 (720x576) VBR, Auto Letterboxed

VTS_18 :
Play Length: 00:00:00
Video: PAL 16:9 (720x576) VBR, Auto Pan&Scan
mediainfoФормат : MPEG-PS
Размер файла : 1024 Мбайт
Продолжительность : 23 м.
Режим общего битрейта : Переменный
Общий поток : 6045 Кбит/сек

Видео
Идентификатор : 224 (0xE0)
Формат : MPEG Video
Версия формата : Version 2
Профиль формата : Main@Main
Параметр BVOP формата : Да
Параметр матрицы формата : Выборочная
Продолжительность : 23 м.
Вид битрейта : Переменный
Битрейт : 5028 Кбит/сек
Максимальный битрейт : 9800 Кбит/сек
Ширина : 720 пикселей
Высота : 576 пикселей
Соотношение сторон : 16:9
Частота кадров : 25,000 кадров/сек
Стандарт вещания : PAL
Цветовое пространство : YUV
Субдискретизация насыщенности : 4:2:0
Битовая глубина : 8 бит
Тип развёртки : Прогрессивная
Порядок развёртки : Верхнее поле первое
Метод сжатия : С потерями
Бит/(Пиксели*Кадры) : 0.485
Размер потока : 852 Мбайт (83%)

Аудио #1
Идентификатор : 189 (0xBD)-128 (0x80)
Формат : AC-3
Формат/Информация : Audio Coding 3
Расширение режима : CM (complete main)
Режим смешивания : DVD-Video
Продолжительность : 23 м.
Вид битрейта : Постоянный
Битрейт : 448 Кбит/сек
Каналы : 6 каналов
Расположение каналов : Front: L C R, Side: L R, LFE
Частота : 48,0 КГц
Битовая глубина : 16 бит
Метод сжатия : С потерями
Размер потока : 75,9 Мбайт (7%)

Аудио #2
Идентификатор : 189 (0xBD)-130 (0x82)
Формат : AC-3
Формат/Информация : Audio Coding 3
Расширение режима : CM (complete main)
Режим смешивания : DVD-Video
Продолжительность : 23 м.
Вид битрейта : Постоянный
Битрейт : 448 Кбит/сек
Каналы : 6 каналов
Расположение каналов : Front: L C R, Side: L R, LFE
Частота : 48,0 КГц
Битовая глубина : 16 бит
Метод сжатия : С потерями
Размер потока : 75,9 Мбайт (7%)

Текст
Идентификатор : 189 (0xBD)-42 (0x2A)
Формат : RLE
Формат/Информация : Run-length encoding
Режим смешивания : DVD-Video

Меню

Скриншоты меню






Скриншоты фильма





ЗалилСценарий: Кристофер Додд, Майкл Гринспен, Кристиан Форте
В ролях: Кэти Кэссиди, Шеннон Чан-Кент, Торранс Кумбс, Адам ДиМарко, Лини Эванс, Леа Гибсон, Чела Хорсдэл, Колин Лоуренс, Донал Лог, Райан Роббинс, Трэйси Спиридакос, Керстен ВанРитцен

DVD5 (сжатый)
Продолжительность: 01:31:04
Профессиональный (многоголосый, закадровый)

Перевод:

Если у вас возникли проблемы с закачкой Убей ради меня / Kill for Me (2013) DVD5 сжатый | Лицензия, перейдите по ссылке - там вы найдете решение своей проблемы.

Категория: Зарубежные фильмы

 

Скачать Убей ради меня / Kill for Me (2013) DVD5 сжатый | Лицензия бесплатно без регистрации

 

Информация
Посетители, находящиеся в группе Гости, не могут оставлять комментарии к данной публикации.
 
 
Скачать Убей ради меня / Kill for Me (2013) DVD5 сжатый | Лицензия бесплатно без регистрацииCopyright © 2019 .