Скачать Крыша мира [S01-02] (2016-2017) WEB-DLRip от Generalfilm | КПК бесплатно без регистрации






Информация о фильме
Студия: Yellow, Black and White и кинокомпания «Небо»
Перевод: Не требуется

Жанр: Комедия, мелодрама
Оригинальное название: Крыша мира
Качество: WEB-DLRip | КПК
О фильме:
История трех молодых людей, волей случая оказавшихся вместе. И в очень хорошем месте — огромной квартире в самом центре Москвы с выходом на крышу и головокружительным видом на город. Герои решают открыть в квартире хостел — бюджетную гостиницу. У них есть все, чтобы преуспеть — организаторские способности одного, дизайнерский талант другого и, разумеется, сама квартира. Что из этого получится? Знают только они, ну и сварливый сосед — бывший прапорщик — который изо всех сил будет мешать этой бизнес-идее состояться. Жизнь современной Москвы глазами 20-летних и с высоты птичьего полета.



Год выхода: 2016
Режиссер: Роман Фокин
Семпл

Скриншоты
MIComplete name : F:КИНОKrycha.Mira.AVC.KPK.GFKrycha.Mira.S01.2016.AVC.WEB-DLRip.KPK.GFKrycha.Mira.s01e07.2016.AVC.WEB-DLRip.KPK.GF.mp4
Format : MPEG-4
Codec ID : M4V (isom/iso2/avc1)
File size : 110 MiB
Duration : 24 min 12 s
Overall bit rate mode : Variable
Overall bit rate : 634 kb/s
Writing application : Lavf53.19.0

Video
ID : 1
Format : AVC
Format/Info : Advanced Video Codec
Format profile : High@L4.1
Format settings, CABAC : Yes
Format settings, RefFrames : 8 frames
Codec ID : avc1
Codec ID/Info : Advanced Video Coding
Duration : 24 min 12 s
Bit rate : 500 kb/s
Width : 640 pixels
Height : 360 pixels
Display aspect ratio : 16:9
Frame rate mode : Constant
Frame rate : 25.000 FPS
Color space : YUV
Chroma subsampling : 4:2:0
Bit depth : 8 bits
Scan type : Progressive
Bits/(Pixel*Frame) : 0.087
Stream size : 86.5 MiB (79%)
Writing library : x264 core 148 r2638 7599210
Encoding settings : cabac=1 / ref=8 / deblock=1:-1:-1 / analyse=0x3:0x133 / me=umh / subme=10 / psy=1 / psy_rd=1.00:0.00 / mixed_ref=1 / me_range=24 / chroma_me=1 / trellis=2 / 8x8dct=1 / cqm=0 / deadzone=21,11 / fast_pskip=1 / chroma_qp_offset=-2 / threads=6 / lookahead_threads=1 / sliced_threads=0 / nr=0 / decimate=1 / interlaced=0 / bluray_compat=0 / constrained_intra=0 / bframes=8 / b_pyramid=2 / b_adapt=2 / b_bias=0 / direct=3 / weightb=1 / open_gop=0 / weightp=2 / keyint=250 / keyint_min=126 / scenecut=40 / intra_refresh=0 / rc_lookahead=40 / rc=2pass / mbtree=1 / bitrate=500 / ratetol=1.0 / qcomp=0.60 / qpmin=0 / qpmax=69 / qpstep=4 / cplxblur=20.0 / qblur=0.5 / ip_ratio=1.40 / aq=1:1.00
Menus : 3

Audio
ID : 2
Format : AAC
Format/Info : Advanced Audio Codec
Format profile : LC
Codec ID : 40
Duration : 24 min 12 s
Bit rate mode : Variable
Bit rate : 128 kb/s
Channel(s) : 2 channels
Channel positions : Front: L R
Sampling rate : 48.0 kHz
Frame rate : 46.875 FPS (1024 SPF)
Compression mode : Lossy
Stream size : 22.2 MiB (20%)
Default : Yes
Alternate group : 1
Menus : 3

Аудио: AAC LC, 48.0 KHz, 2 ch, 128 Kbps
Продолжительность: 40 х ~00:24:00
В ролях: Алексей Бардуков, Илья Глинников, Ирина Старшенбаум, Николай Козак, Александр Робак, Ирина Темичева, Светлана Костюкова, Александр Андриенко, Александр Константинов, Андрей Щеткин, Алексей Гришин

Субтитры: Нет

Страна: Россия
Видео: MPEG-4 AVC (x264), 640x360, ~500 kbps, 25.000 fps
Релиз от: ЗалилФормат: MP4
toys_watch ОценкаНикто ещё не поставил оценку КатегорияНаши сериалы Раздают3 Качают0 Сидер замечен11-06-2019 13:19:12 (4 минуты назад) Добавлен07-08-2018 11:50:16 (10 месяцев назад) Размер4.28 GB (4599391950 Bytes)

Если у вас возникли проблемы с закачкой Крыша мира [S01-02] (2016-2017) WEB-DLRip от Generalfilm | КПК, перейдите по ссылке - там вы найдете решение своей проблемы.

Категория: Наши сериалы

 

Скачать Крыша мира [S01-02] (2016-2017) WEB-DLRip от Generalfilm | КПК бесплатно без регистрации

 

Информация
Посетители, находящиеся в группе Гости, не могут оставлять комментарии к данной публикации.
 
 
Скачать Крыша мира [S01-02] (2016-2017) WEB-DLRip от Generalfilm | КПК бесплатно без регистрацииCopyright © 2019 .