Скачать Немножко беременна / Knocked Up (2007) HDRip-AVC от ExKinoRay | Unrated Cut | D бесплатно без регистрации






Информация о фильме
О фильме :
Эллисон молодая журналистка в самом начале карьеры – уверенная в себе, знающая, чего она хочет, и живущая в сумасшедшем ритме деловой женщины. Бен – полная ее противоположность - разгильдяй, работой которого является развитие сайта с сомнительным содержанием, а любимым занятием – посиделки в баре за кружкой пива. И так уж распорядилась судьба, что эти два совершенно разные человека встретились на вечеринке и, подвыпив, провели вместе одну единственную ночь. Наследующий день каждый из них вернулся в свою жизнь, практически забыв о случайном партнере. Представьте себе изумление и досаду Эллисон, когда через несколько месяцев она узнает, что беременна... Совершенно не готовая к рождению ребенка, девушка стоит перед нелегким выбором – растить малыша самой или все-таки попытаться немного лучше узнать Бена, чтобы их ребенок вырос в полной семье. Вот только Бен тоже пока не планировал становиться папой и совершенно не знает, что с этим делать…



Название: Немножко беременна
Выпущено: США
Видео: MPEG-4 AVC, 720x392, ~ 710 Кбит/с
Студия: Universal Pictures
Жанр: комедия, мелодрама, драма
Аудио: AAC-LC, 2 ch, ~72 Кбит/с

MIОбщее
Уникальный идентификатор : 214356442638636444857403555862288204446 (0xA1438C9613F33BFF9807C86551FB029E)
Полное имя : D:MOVIESNemnozhko beremenna.2007.ExKinoRay.mkv
Формат : Matroska
Версия формата : Version 4 / Version 2
Размер файла : 746 Мбайт
Продолжительность : 2 ч. 12 м.
Общий поток : 784 Кбит/сек
Дата кодирования : UTC 2017-09-21 21:27:24
Программа кодирования : mkvmerge v15.0.0 ('Duel with the Devil') 64-bit
Библиотека кодирования : libebml v1.3.5 + libmatroska v1.4.5

Видео
Идентификатор : 1
Формат : AVC
Формат/Информация : Advanced Video Codec
Профиль формата : High@L4.1
Параметр CABAC формата : Да
Параметр RefFrames формата : 10 кадров
Идентификатор кодека : V_MPEG4/ISO/AVC
Продолжительность : 2 ч. 12 м.
Битрейт : 710 Кбит/сек
Ширина : 720 пикселей
Высота : 392 пикселя
Соотношение сторон : 1,85:1
Режим частоты кадров : Постоянный
Частота кадров : 23,976 (24000/1001) кадра/сек
Цветовое пространство : YUV
Субдискретизация насыщенности : 4:2:0
Битовая глубина : 8 бит
Тип развёртки : Прогрессивная
Бит/(Пиксели*Кадры) : 0.105
Размер потока : 675 Мбайт (91%)
Библиотека кодирования : x264 core 152 r2851kMod ba24899
Настройки программы : cabac=1 / ref=10 / deblock=1:-3:-3 / analyse=0x3:0x113 / me=umh / subme=11 / psy=1 / fade_compensate=0.00 / psy_rd=1.00:0.10 / mixed_ref=1 / me_range=32 / chroma_me=1 / trellis=2 / 8x8dct=1 / cqm=0 / deadzone=21,11 / fast_pskip=0 / chroma_qp_offset=-3 / threads=6 / lookahead_threads=1 / sliced_threads=0 / nr=0 / decimate=0 / interlaced=0 / bluray_compat=0 / constrained_intra=0 / bframes=10 / b_pyramid=2 / b_adapt=2 / b_bias=0 / direct=3 / weightb=1 / open_gop=0 / weightp=2 / keyint=240 / keyint_min=23 / scenecut=40 / intra_refresh=0 / rc_lookahead=40 / rc=2pass / mbtree=1 / bitrate=710 / ratetol=1.0 / qcomp=0.60 / qpmin=0 / qpmax=69 / qpstep=4 / cplxblur=20.0 / qblur=0.5 / vbv_maxrate=50000 / vbv_bufsize=62500 / nal_hrd=none / filler=0 / ip_ratio=1.40 / aq=3:1.00
Default : Да
Forced : Нет

Аудио
Идентификатор : 2
Формат : AAC
Формат/Информация : Advanced Audio Codec
Профиль формата : LC
Идентификатор кодека : A_AAC
Продолжительность : 2 ч. 12 м.
Битрейт : 72,0 Кбит/сек
Каналы : 2 канала
Расположение каналов : Front: L R
Частота : 48,0 КГц
Частота кадров : 46,875 кадров/сек (1024 SPF)
Метод сжатия : С потерями
Задержка видео : 9 мс.
Размер потока : 68,5 Мбайт (9%)
Default : Да
Forced : Нет
Скриншоты


sany771 Оценка10 из 10 (2 голосов, самая низкая оценка - 10, самая высокая - 10) КатегорияЗарубежные фильмы Раздают6 Качают1 Сидер замечен11-06-2019 13:19:12 (4 минуты назад) Добавлен22-09-2017 0:42:05 (21 месяц назад) Размер745.58 MB (781801447 Bytes)Перевод: Дублированный

Продолжительность: 02:12:57
Формат: MKV
Оригинальное название: Knocked Up
В ролях: Кэтрин Хайгл, Сет Роджен, Пол Рудд, Лесли Манн, Джейсон Сегел, Джей Барушель, Йон Хилл, Мартин Старр, Шарлин Йи, Ирис Апатов, Мод Апатов, Джоэнна Кернс, Харольд Рэмис, Алан Тьюдик, Кристен Уиг

Релиз от: ЗалилКачество: HDRip-AVC
Год выхода: 2007
Режиссер: Джудд Апатоу

Если у вас возникли проблемы с закачкой Немножко беременна / Knocked Up (2007) HDRip-AVC от ExKinoRay | Unrated Cut | D, перейдите по ссылке - там вы найдете решение своей проблемы.

Категория: Зарубежные фильмы

 

Скачать Немножко беременна / Knocked Up (2007) HDRip-AVC от ExKinoRay | Unrated Cut | D бесплатно без регистрации

 

Информация
Посетители, находящиеся в группе Гости, не могут оставлять комментарии к данной публикации.
 
 
Скачать Немножко беременна / Knocked Up (2007) HDRip-AVC от ExKinoRay | Unrated Cut | D бесплатно без регистрацииCopyright © 2019 .