Скачать Красная черепаха / The Red Turtle / La tortue rouge (2016) BDRip-AVC бесплатно без регистрации






Информация о фильме
Видео: High@L4.1; 768x416; 1223 Кбит/сек; 23,976 кадра/сек; 0.160
Кодек: H.264
Жанр: мультфильм, фэнтези, арт-хаус
Перевод: Не требуется

Название: Красная черепаха
О фильме:
Мужчина попадает на необитаемый остров. Ему удаётся построить плот, но далеко уплыть не получается — красная черепаха пресекает все его попытки к бегству.



Студия: arte France Cinéma, Belvision, CN4 Productions, Prima Linéa Productions, Studio Ghibli, Why Not Productions, Wild Bunch
Год выхода: 2016
Качество: BDRip-AVC (BDRemux 1080p)
Звук: HE-AAC / LC; 44,1 КГц / 22,05 КГц; 64,0 Кбит/сек; 2 канала

Скриншоты MIОбщее
Уникальный идентификатор : 222074265787138903030604400119842811681 (0xA711F2A55CB56F348113DC4D13872F21)
Полное имя : D:Фильмы_ИзбранноеКрасная черепаха (2016) BDRip.mkv
Формат : Matroska
Версия формата : Version 4 / Version 2
Размер файла : 739 Мбайт
Продолжительность : 1 ч. 20 м.
Общий поток : 1278 Кбит/сек
Дата кодирования : UTC 2017-05-03 08:04:31
Программа кодирования : mkvmerge v9.8.0 ('Kuglblids') 64bit
Библиотека кодирования : libebml v1.3.4 + libmatroska v1.4.5

Видео
Идентификатор : 1
Формат : AVC
Формат/Информация : Advanced Video Codec
Профиль формата : High@L4.1
Параметр CABAC формата : Да
Параметр ReFrames формата : 16 кадров
Идентификатор кодека : V_MPEG4/ISO/AVC
Продолжительность : 1 ч. 20 м.
Битрейт : 1223 Кбит/сек
Ширина : 768 пикселей
Высота : 416 пикселей
Соотношение сторон : 1,85:1
Режим частоты кадров : Постоянный
Частота кадров : 23,976 (24000/1001) кадра/сек
Цветовое пространство : YUV
Субдискретизация насыщенности : 4:2:0
Битовая глубина : 8 бит
Тип развёртки : Прогрессивная
Бит/(Пиксели*Кадры) : 0.160
Размер потока : 701 Мбайт (95%)
Библиотека кодирования : x264 core 148 r2744 b97ae06
Настройки программы : cabac=1 / ref=16 / deblock=1:-1:-1 / analyse=0x3:0x133 / me=umh / subme=10 / psy=1 / psy_rd=1.00:0.15 / mixed_ref=1 / me_range=24 / chroma_me=1 / trellis=2 / 8x8dct=1 / cqm=0 / deadzone=21,11 / fast_pskip=1 / chroma_qp_offset=-3 / threads=6 / lookahead_threads=1 / sliced_threads=0 / nr=0 / decimate=1 / interlaced=0 / bluray_compat=0 / constrained_intra=0 / bframes=8 / b_pyramid=2 / b_adapt=2 / b_bias=0 / direct=3 / weightb=1 / open_gop=0 / weightp=2 / keyint=240 / keyint_min=23 / scenecut=40 / intra_refresh=0 / rc_lookahead=60 / rc=2pass / mbtree=1 / bitrate=1223 / ratetol=1.0 / qcomp=0.60 / qpmin=0 / qpmax=69 / qpstep=4 / cplxblur=20.0 / qblur=0.5 / vbv_maxrate=50000 / vbv_bufsize=62500 / nal_hrd=none / filler=0 / ip_ratio=1.40 / aq=1:1.00
Default : Да
Forced : Нет

Аудио
Идентификатор : 2
Формат : AAC
Формат/Информация : Advanced Audio Codec
Профиль формата : HE-AAC / LC
Идентификатор кодека : A_AAC
Продолжительность : 1 ч. 20 м.
Битрейт : 64,0 Кбит/сек
Каналы : 2 канала
Расположение каналов : Front: L R
Частота : 48,0 КГц / 24,0 КГц
Частота кадров : 23,438 кадра/сек (1024 spf)
Метод сжатия : С потерями
Задержка видео : 31 мс.
Размер потока : 37,0 Мбайт (5%)
Default : Да
Forced : Нет

Меню
00:00:00.000 : :Глава 01
00:07:15.685 : :Глава 02
00:17:34.720 : :Глава 03
00:27:39.365 : :Глава 04
00:36:32.148 : :Глава 05
00:46:00.257 : :Глава 06
00:55:55.143 : :Глава 07
01:07:01.891 : :Глава 08
01:16:37.426 : :Глава 09 ЗалилПродолжительность: 01:20:49
Страна: Франция, Бельгия, Япония
Режиссер: Майкл Дадок де Уит
AMKaliostro ОценкаНикто ещё не поставил оценку КатегорияМультипликация Раздают4 Качают0 Сидер замечен11-06-2019 12:19:12 (4 минуты назад) Добавлен03-05-2017 11:40:12 (26 месяцев назад) Размер739.13 MB (775032839 Bytes)Оригинальное название: The Red Turtle / La tortue rouge

Если у вас возникли проблемы с закачкой Красная черепаха / The Red Turtle / La tortue rouge (2016) BDRip-AVC, перейдите по ссылке - там вы найдете решение своей проблемы.

Категория: Мультипликация

 

Скачать Красная черепаха / The Red Turtle / La tortue rouge (2016) BDRip-AVC бесплатно без регистрации

 

Информация
Посетители, находящиеся в группе Гости, не могут оставлять комментарии к данной публикации.
 
 
Скачать Красная черепаха / The Red Turtle / La tortue rouge (2016) BDRip-AVC бесплатно без регистрацииCopyright © 2019 .