Скачать Между нами горы / The Mountain Between Us (2017) BDRip-AVC от ExKinoRay | Лицензия бесплатно без регистрации







Информация о фильме
Год выпуска: 2017
Жанр: Боевик, триллер, драма, мелодрама, приключения, экранизация
Видео: AVC, 1024x428 (2.40:1), 23.976 fps, 1402 Kbps, 0.133 bit/pixel
В ролях: Идрис Эльба, Кейт Уинслет, Бо Бриджес, Дермот Малруни, Линда Соренсон, Винсент Гэйл, Марси Т. Хаус, Ли Мадждуб, Андрес Джозеф



Продолжительность: 01:51:49
Субтитры: Русские (форсированные, полные), украинские, английские

МИGeneral
Unique ID : 245122288947045615099730029524333500811 (0xB868D5EBFA516FDF9A3D5F7F1C7E198B)
Complete name : D:The.Mountain.Between.Us.2017.BDRip.AVC.ExKinoRay.mkv
Format : Matroska
Format version : Version 2
File size : 1.95 GiB
Duration : 1 h 51 min
Overall bit rate : 2 492 kb/s
Movie name : The Mountain Between Us (2017) from ExKinoRay
Encoded date : UTC 2018-02-02 02:20:23
Writing application : mkvmerge v5.6.0 ('Kenya Kane') built on May 27 2012 16:44:04
Writing library : libebml v1.2.3 + libmatroska v1.3.0

Video
ID : 1
Format : AVC
Format/Info : Advanced Video Codec
Format profile : High@L4.1
Format settings, CABAC : Yes
Format settings, ReFrames : 13 frames
Codec ID : V_MPEG4/ISO/AVC
Duration : 1 h 51 min
Bit rate : 1 402 kb/s
Width : 1 024 pixels
Height : 428 pixels
Display aspect ratio : 2.40:1
Frame rate mode : Constant
Frame rate : 23.976 (23976/1000) FPS
Color space : YUV
Chroma subsampling : 4:2:0
Bit depth : 8 bits
Scan type : Progressive
Bits/(Pixel*Frame) : 0.133
Stream size : 1.06 GiB (54%)
Title : Enigma
Writing library : x264 core 152 r2851 ba24899
Encoding settings : cabac=1 / ref=13 / deblock=1:-2:-2 / analyse=0x3:0x113 / me=umh / subme=10 / psy=1 / psy_rd=1.05:0.05 / mixed_ref=1 / me_range=32 / chroma_me=1 / trellis=2 / 8x8dct=1 / cqm=0 / deadzone=21,11 / fast_pskip=0 / chroma_qp_offset=-3 / threads=12 / lookahead_threads=3 / sliced_threads=0 / nr=0 / decimate=0 / interlaced=0 / bluray_compat=0 / constrained_intra=0 / bframes=11 / b_pyramid=2 / b_adapt=2 / b_bias=0 / direct=3 / weightb=1 / open_gop=0 / weightp=2 / keyint=240 / keyint_min=23 / scenecut=40 / intra_refresh=0 / rc_lookahead=40 / rc=2pass / mbtree=0 / bitrate=1402 / ratetol=1.0 / qcomp=0.65 / qpmin=0 / qpmax=51 / qpstep=4 / cplxblur=20.0 / qblur=0.5 / vbv_maxrate=50000 / vbv_bufsize=62500 / nal_hrd=none / filler=0 / ip_ratio=1.40 / pb_ratio=1.30 / aq=1:1.00
Language : English
Default : Yes
Forced : No
Color range : Limited
Color primaries : BT.709
Transfer characteristics : BT.709
Matrix coefficients : BT.709

Audio #1
ID : 2
Format : AC-3
Format/Info : Audio Coding 3
Mode extension : CM (complete main)
Format settings, Endianness : Big
Codec ID : A_AC3
Duration : 1 h 51 min
Bit rate mode : Constant
Bit rate : 448 kb/s
Channel(s) : 6 channels
Channel positions : Front: L C R, Side: L R, LFE
Sampling rate : 48.0 kHz
Frame rate : 31.250 FPS (1536 spf)
Compression mode : Lossy
Stream size : 358 MiB (18%)
Title : Dub (Lisensia)
Language : Russian
Default : Yes
Forced : No

Audio #2
ID : 3
Format : AC-3
Format/Info : Audio Coding 3
Mode extension : CM (complete main)
Format settings, Endianness : Big
Codec ID : A_AC3
Duration : 1 h 51 min
Bit rate mode : Constant
Bit rate : 192 kb/s
Channel(s) : 2 channels
Channel positions : Front: L R
Sampling rate : 48.0 kHz
Frame rate : 31.250 FPS (1536 spf)
Compression mode : Lossy
Stream size : 154 MiB (8%)
Language : Ukrainian
Default : No
Forced : No

Audio #3
ID : 4
Format : AC-3
Format/Info : Audio Coding 3
Mode extension : CM (complete main)
Format settings, Endianness : Big
Codec ID : A_AC3
Duration : 1 h 51 min
Bit rate mode : Constant
Bit rate : 448 kb/s
Channel(s) : 6 channels
Channel positions : Front: L C R, Side: L R, LFE
Sampling rate : 48.0 kHz
Frame rate : 31.250 FPS (1536 spf)
Compression mode : Lossy
Stream size : 358 MiB (18%)
Language : English
Default : No
Forced : No

Text #1
ID : 5
Format : UTF-8
Codec ID : S_TEXT/UTF8
Codec ID/Info : UTF-8 Plain Text
Title : Forced
Language : Russian
Default : Yes
Forced : No

Text #2
ID : 6
Format : UTF-8
Codec ID : S_TEXT/UTF8
Codec ID/Info : UTF-8 Plain Text
Title : Full
Language : Russian
Default : No
Forced : No

Text #3
ID : 7
Format : UTF-8
Codec ID : S_TEXT/UTF8
Codec ID/Info : UTF-8 Plain Text
Language : Ukrainian
Default : No
Forced : No

Text #4
ID : 8
Format : UTF-8
Codec ID : S_TEXT/UTF8
Codec ID/Info : UTF-8 Plain Text
Title : Full
Language : English
Default : No
Forced : No

Text #5
ID : 9
Format : UTF-8
Codec ID : S_TEXT/UTF8
Codec ID/Info : UTF-8 Plain Text
Language : English
Default : No
Forced : No

Menu
00:00:00.000 : en:00:00:00.000
00:02:58.595 : en:00:02:58.595
00:08:52.782 : en:00:08:52.782
00:13:15.378 : en:00:13:15.378
00:16:21.480 : en:00:16:21.480
00:21:36.253 : en:00:21:36.253
00:26:51.985 : en:00:26:51.985
00:31:53.370 : en:00:31:53.370
00:38:56.084 : en:00:38:56.084
00:43:45.373 : en:00:43:45.373
00:51:04.311 : en:00:51:04.311
00:57:28.737 : en:00:57:28.737
01:01:22.721 : en:01:01:22.721
01:04:39.417 : en:01:04:39.417
01:07:41.057 : en:01:07:41.057
01:11:06.429 : en:01:11:06.429
01:14:56.534 : en:01:14:56.534
01:19:15.125 : en:01:19:15.125
01:23:48.398 : en:01:23:48.398
01:27:52.476 : en:01:27:52.476
01:32:13.570 : en:01:32:13.570
01:35:41.653 : en:01:35:41.653
01:41:48.269 : en:01:41:48.269
01:45:22.483 : en:01:45:22.483





Оригинальное название: The Mountain Between Us
Выпущено: США, Chernin Entertainment, Twentieth Century Fox Film Corporation
Перевод: Дублированный [Blu-ray EUR]



Качество: BDRip-AVC
Название: Между нами горы
Enigma2010 ОценкаНикто ещё не поставил оценку КатегорияЗарубежные фильмы Раздают13 Качают1 Сидер замечен11-06-2019 10:19:12 (4 минуты назад) Добавлен02-02-2018 6:57:13 (16 месяцев назад) Размер1.95 GB (2089749138 Bytes)Описание: В окруженном горами аэропорте Солт-Лейк-Сити отменены все рейсы из-за непогоды. Двое случайных знакомых, Бен и Эшли, решают лететь на маленьком частном самолете. Оба они опаздывают по своим делам и сильно торопятся. К несчастью, самолет терпит крушение в горах. Пилот погибает, и два малознакомых пассажира остаются наедине друг с другом среди заснеженных вершин. Чтобы спастись, им придется совершить невозможное. В короткий срок им предстоит узнать и довериться друг другу во спасение своих жизней.



Автор релиза: ЗалилРелиз от:

Режиссер: Хани Абу-Ассад
Аудио 1: AC-3, 48.0 KHz, 5.1 ch, 448 Kbps, CBR (Russian)
Аудио 2: AC-3, 48.0 KHz, 2.0 ch, 192 Kbps, CBR (UKR)
Контейнер: MKV
Аудио 3: AC-3, 48.0 KHz, 5.1 ch, 448 Kbps, CBR (Eng)

Если у вас возникли проблемы с закачкой Между нами горы / The Mountain Between Us (2017) BDRip-AVC от ExKinoRay | Лицензия, перейдите по ссылке - там вы найдете решение своей проблемы.

Категория: Зарубежные фильмы

 

Скачать Между нами горы / The Mountain Between Us (2017) BDRip-AVC от ExKinoRay | Лицензия бесплатно без регистрации

 

Информация
Посетители, находящиеся в группе Гости, не могут оставлять комментарии к данной публикации.
 
 
Скачать Между нами горы / The Mountain Between Us (2017) BDRip-AVC от ExKinoRay | Лицензия бесплатно без регистрацииCopyright © 2019 .