Скачать Хот-Дог / Hot Dog (2018) BDRip 1080p | iTunes бесплатно без регистрации






Информация о фильме
О фильме: Могут ли сработаться оперативник-бунтарь, презирающий глупые приказы начальства и молодой полицейский-формалист, у которого на каждый шаг в голове есть инструкция? На глазах у этой парочки похищают дочь президента одной из восточно-европейских стран, и теперь, чтобы отстоять свою честь, они должны вернуть похищенную. Вот только разница в их подходах к работе грозит перевернуть с ног наголову любое дело, за которое они берутся.



Звук#2: немецкий, AC3, 5.1 ch, 48 kHz, 640 kbps | оригинал
Перевод: Жанр: Боевик, комедия
Оригинальное название: Hot Dog
Дублированный |Субтитры: русские, английские, немецкие

Исходникhttp://lostpic.net/image/niFqMIGeneral
Уникальный идентификатор : 213042668271597597865677376329430289380 (0xA04686824B7F931FBABED77C97F74BE4)
Полное имя : F:TorrentHotDogBDRip1080p.mkv
Формат : Matroska
Версия формата : Version 4 / Version 2
Размер файла : 8.12 GiB
Продолжительность : 1 h 45 min
Общий поток : 11.0 Mb/s
Дата кодирования : UTC 2018-10-03 19:20:25
Программа кодирования : mkvmerge v9.5.0 ('Quiet Fire') 64bit
Библиотека кодирования : libebml v1.3.4 + libmatroska v1.4.5

Video
Идентификатор : 1
Формат : AVC
Формат/Информация : Advanced Video Codec
Профиль формата : High@L4.1
Настройки формата : CABAC / 5 Ref Frames
Параметр CABAC формата : Yes
Параметр RefFrames формата : 5 frames
Идентификатор кодека : V_MPEG4/ISO/AVC
Продолжительность : 1 h 45 min
Битрейт : 10 000 kb/s
Ширина : 1 920 pixels
Высота : 800 pixels
Соотношение сторон : 2.40:1
Режим частоты кадров : Constant
Частота кадров : 23.976 (24000/1001) FPS
Цветовое пространство : YUV
Субдискретизация насыщенности : 4:2:0
Битовая глубина : 8 bits
Тип развёртки : Progressive
Бит/(Пиксели*Кадры) : 0.272
Размер потока : 7.36 GiB (91%)
Библиотека кодирования : x264 core 155 r2901M 7d0ff22
Настройки программы : cabac=1 / ref=5 / deblock=1:-1:-1 / analyse=0x3:0x113 / me=umh / subme=11 / psy=1 / psy_rd=1.00:0.00 / mixed_ref=1 / me_range=48 / chroma_me=1 / trellis=2 / 8x8dct=1 / cqm=0 / deadzone=21,11 / fast_pskip=0 / chroma_qp_offset=-2 / threads=9 / lookahead_threads=2 / sliced_threads=0 / nr=0 / decimate=0 / interlaced=0 / bluray_compat=0 / constrained_intra=0 / bframes=12 / b_pyramid=2 / b_adapt=2 / b_bias=0 / direct=3 / weightb=1 / open_gop=0 / weightp=2 / keyint=240 / keyint_min=24 / scenecut=40 / intra_refresh=0 / rc_lookahead=120 / rc=2pass / mbtree=0 / bitrate=10000 / ratetol=1.0 / qcomp=0.70 / qpmin=0 / qpmax=69 / qpstep=4 / cplxblur=20.0 / qblur=0.5 / vbv_maxrate=50000 / vbv_bufsize=62500 / nal_hrd=none / filler=0 / ip_ratio=1.40 / pb_ratio=1.30 / aq=3:0.80
Default : Yes
Forced : No

Audio #1
Идентификатор : 2
Формат : AC-3
Формат/Информация : Audio Coding 3
Идентификатор кодека : A_AC3
Продолжительность : 1 h 45 min
Вид битрейта : Constant
Битрейт : 384 kb/s
Каналы : 6 channels
Расположение каналов : Front: L C R, Side: L R, LFE
Частота : 48.0 kHz
Частота кадров : 31.250 FPS (1536 SPF)
Битовая глубина : 16 bits
Метод сжатия : Lossy
Размер потока : 290 MiB (3%)
Язык : Russian
Default : Yes
Forced : No

Audio #2
Идентификатор : 3
Формат : AC-3
Формат/Информация : Audio Coding 3
Идентификатор кодека : A_AC3
Продолжительность : 1 h 45 min
Вид битрейта : Constant
Битрейт : 640 kb/s
Каналы : 6 channels
Расположение каналов : Front: L C R, Side: L R, LFE
Частота : 48.0 kHz
Частота кадров : 31.250 FPS (1536 SPF)
Битовая глубина : 16 bits
Метод сжатия : Lossy
Размер потока : 483 MiB (6%)
Язык : German
Default : No
Forced : No

Text #1
Идентификатор : 4
Формат : UTF-8
Идентификатор кодека : S_TEXT/UTF8
Идентификатор кодека/Информация : UTF-8 Plain Text
Продолжительность : 1 h 44 min
Битрейт : 103 b/s
ElementCount : 1287
Размер потока : 78.9 KiB (0%)
Язык : Russian
Default : No
Forced : No

Text #2
Идентификатор : 5
Формат : UTF-8
Идентификатор кодека : S_TEXT/UTF8
Идентификатор кодека/Информация : UTF-8 Plain Text
Продолжительность : 1 h 44 min
Битрейт : 59 b/s
ElementCount : 1288
Размер потока : 45.9 KiB (0%)
Язык : English
Default : No
Forced : No

Text #3
Идентификатор : 6
Формат : UTF-8
Идентификатор кодека : S_TEXT/UTF8
Идентификатор кодека/Информация : UTF-8 Plain Text
Продолжительность : 1 h 44 min
Битрейт : 63 b/s
ElementCount : 1469
Размер потока : 49.0 KiB (0%)
Язык : German
Default : No
Forced : No

Menu
00:00:00.000 : en:Chapter 1
00:10:09.984 : en:Chapter 2
00:18:15.177 : en:Chapter 3
00:28:49.185 : en:Chapter 4
00:37:41.676 : en:Chapter 5
00:46:10.517 : en:Chapter 6
00:55:33.913 : en:Chapter 7
01:03:30.598 : en:Chapter 8
01:12:27.051 : en:Chapter 9
01:19:02.863 : en:Chapter 10
01:26:47.118 : en:Chapter 11
01:36:04.091 : en:Chapter 12

Скриншоты

ЗалилПродолжительность: 01:45:31
Название: Хот-Дог
Звук#1: русский, AC3, 5.1 ch, 48 kHz, 384 kbps |Страна: Германия
В ролях: Тиль Швайгер, Маттиас Швайгхёфер, Энн Шефер, Лиза Томашевски, Йоахим Пауль Ассбёк, Давид Брюкнер, Симсон Баббл, Томас Фелен, Хайно Ферх, Самуэль Финци и др.

Видео: MPEG-4 AVC, 1920x800, 10000 kbps, 23,976 fps
Sisendrovich Оценка7.7 из 10 (15 голосов, самая низкая оценка - 3, самая высокая - 10) КатегорияЗарубежные фильмы Раздают17 Качают2 Сидер замечен11-06-2019 8:19:12 (4 минуты назад) Добавлен04-10-2018 14:13:41 (8 месяцев назад) Размер8.12 GB (8720520759 Bytes)iTunes
Год выхода: 2018
iTunes
Режиссер: Торстен Кюнстлер
Качество: BDRip 1080p

Если у вас возникли проблемы с закачкой Хот-Дог / Hot Dog (2018) BDRip 1080p | iTunes, перейдите по ссылке - там вы найдете решение своей проблемы.

Категория: Зарубежные фильмы

 

Скачать Хот-Дог / Hot Dog (2018) BDRip 1080p | iTunes бесплатно без регистрации

 

Информация
Посетители, находящиеся в группе Гости, не могут оставлять комментарии к данной публикации.
 
 
Скачать Хот-Дог / Hot Dog (2018) BDRip 1080p | iTunes бесплатно без регистрацииCopyright © 2019 .