Скачать Однажды в Америке / Once Upon a Time in America (1984) BDRip 1080p | Extended Cut бесплатно без регистрации






Информация о фильме
В ролях: Роберт Де Ниро, Джеймс Вудс, Элизабет МакГоверн, Джо Пеши, Берт Янг, Тьюзди Уэлд, Трит Уильямс, Дэнни Айелло, Ричард Брайт, Джеймс Хейден

Название: Однажды в Америке
Продолжительность: 04:11:00
сэмпл

Скриншоты

MIОбщее
Уникальный идентификатор : 241026803242058869573263783385307930425 (0xB55412E30248551B97CAE0A64CE1DF39)
Полное имя : Once.Upon.a.Time.in.America.1984.BDRip.1080p.Rus.Eng.mkv
Формат : Matroska
Версия формата : Version 2
Размер файла : 15,5 Гбайт
Продолжительность : 4 ч. 11 м.
Общий поток : 8854 Кбит/сек
Название фильма : Однажды в Америке / Once Upon a Time in America (1984) | Extended Cut
Дата кодирования : UTC 2013-01-19 09:07:27
Программа кодирования : mkvmerge v5.8.0 ('No Sleep / Pillow') built on Sep 2 2012 15:37:04
Библиотека кодирования : libebml v1.2.3 + libmatroska v1.3.0

Видео
Идентификатор : 1
Формат : AVC
Формат/Информация : Advanced Video Codec
Профиль формата : High@L4.1
Параметр CABAC формата : Да
Параметр ReFrames формата : 4 кадра
Идентификатор кодека : V_MPEG4/ISO/AVC
Продолжительность : 4 ч. 11 м.
Битрейт : 7957 Кбит/сек
Ширина : 1920 пикселей
Высота : 1040 пикселей
Соотношение сторон : 16:9
Частота кадров : 24,000 кадра/сек
Цветовое пространство : YUV
Субдискретизация насыщенности : 4:2:0
Битовая глубина : 8 бит
Тип развёртки : Прогрессивная
Бит/(Пиксели*Кадры) : 0.166
Размер потока : 13,6 Гбайт (88%)
Заголовок : Release by AlexKa
Библиотека кодирования : x264 core 129 r2245 bc13772
Настройки программы : cabac=1 / ref=4 / deblock=1:0:0 / analyse=0x3:0x133 / me=umh / subme=10 / psy=1 / psy_rd=1.00:0.00 / mixed_ref=1 / me_range=32 / chroma_me=1 / trellis=2 / 8x8dct=1 / cqm=0 / deadzone=21,11 / fast_pskip=0 / chroma_qp_offset=-2 / threads=12 / lookahead_threads=2 / sliced_threads=0 / nr=0 / decimate=0 / interlaced=0 / bluray_compat=0 / constrained_intra=0 / bframes=5 / b_pyramid=2 / b_adapt=2 / b_bias=0 / direct=3 / weightb=1 / open_gop=0 / weightp=2 / keyint=240 / keyint_min=24 / scenecut=40 / intra_refresh=0 / rc=2pass / mbtree=0 / bitrate=7957 / ratetol=1.0 / qcomp=0.60 / qpmin=0 / qpmax=69 / qpstep=4 / cplxblur=20.0 / qblur=0.5 / ip_ratio=1.40 / pb_ratio=1.30 / aq=1:0.80
Язык : English

Аудио #1
Идентификатор : 2
Формат : AC-3
Формат/Информация : Audio Coding 3
Расширение режима : CM (complete main)
Идентификатор кодека : A_AC3
Продолжительность : 4 ч. 11 м.
Вид битрейта : Постоянный
Битрейт : 448 Кбит/сек
Каналы : 6 каналов
Расположение каналов : Front: L C R, Side: L R, LFE
Частота : 48,0 КГц
Битовая глубина : 16 бит
Метод сжатия : С потерями
Размер потока : 804 Мбайт (5%)
Заголовок : Одноголосый закадровый, Ю. Сербин
Язык : Russian

Аудио #2
Идентификатор : 3
Формат : AC-3
Формат/Информация : Audio Coding 3
Расширение режима : CM (complete main)
Идентификатор кодека : A_AC3
Продолжительность : 4 ч. 11 м.
Вид битрейта : Постоянный
Битрейт : 448 Кбит/сек
Каналы : 6 каналов
Расположение каналов : Front: L C R, Side: L R, LFE
Частота : 48,0 КГц
Битовая глубина : 16 бит
Метод сжатия : С потерями
Размер потока : 804 Мбайт (5%)
Заголовок : Original
Язык : English

Текст #1
Идентификатор : 4
Формат : UTF-8
Идентификатор кодека : S_TEXT/UTF8
Идентификатор кодека/Информация : UTF-8 Plain Text
Заголовок : Rus
Язык : Russian

Текст #2
Идентификатор : 5
Формат : UTF-8
Идентификатор кодека : S_TEXT/UTF8
Идентификатор кодека/Информация : UTF-8 Plain Text
Заголовок : Eng
Язык : English

Меню
00:00:00.000 : :Chapter 01
00:03:28.916 : :Chapter 02
00:14:48.083 : :Chapter 03
00:24:36.000 : :Chapter 04
00:37:39.666 : :Chapter 05
00:45:50.166 : :Chapter 06
00:53:35.875 : :Chapter 07
01:04:46.875 : :Chapter 08
01:12:05.000 : :Chapter 09
01:22:31.582 : :Chapter 10
01:30:33.416 : :Chapter 11
01:38:18.875 : :Chapter 12
01:44:53.291 : :Chapter 13
01:52:24.875 : :Chapter 14
02:01:01.166 : :Chapter 15
02:08:37.625 : :Chapter 16
02:18:36.083 : :Chapter 17
02:27:45.875 : :Chapter 18
02:33:55.583 : :Chapter 19
02:42:24.665 : :Chapter 20
02:48:07.250 : :Chapter 21
02:55:59.333 : :Chapter 22
03:02:59.415 : :Chapter 23
03:08:52.415 : :Chapter 24
03:13:56.708 : :Chapter 25
03:22:56.208 : :Chapter 26
03:30:10.750 : :Chapter 27
03:40:32.625 : :Chapter 28
03:46:35.750 : :Chapter 29
03:54:51.333 : :Chapter 30
04:03:14.166 : :Chapter 31
04:06:44.750 : :Chapter 32x264x264 [info]: frame I:2046 Avg QP:19.45 size:145618
x264 [info]: frame P:77349 Avg QP:21.88 size: 72229
x264 [info]: frame B:282045 Avg QP:24.36 size: 32236 ЗалилКачество: BDRip (источник: Blu-ray Disc)
Скачать: Перевод: Профессиональный (одноголосый закадровый) [Ю.Сербин, новый перевод]

Видео: 1920x1040 (16:9), 24 fps, 7957 kbps
Режиссер: Серджио Леоне
О фильме: В бурные двадцатые годы, когда Америка веселилась под звуки джаза и каждый бродяга мечтал стать миллионером, в трущобах Нью-Йорка встретились несколько отчаянных парней. Убирая с дороги конкурентов, безжалостно карая предателей и нагло проворачивая хитроумные аферы, они стали королями преступного мира золотой эры «сухого закона». Они поклялись отдать жизнь друг за друга, зная, что самое главное для них — это дружба, долг и справедливость — не утопить в реках крови и бездонном океане денег. Спустя много лет судьба жестоко обошлась с легендарными гангстерами, заставив их исполнить свою клятву. Это случилось однажды в Америке…



Аудио #2: AC-3, 6 ch, 448 kbps (Original)
Аудио #1: AC-3, 6 ch, 448 kbps (Одноголосый закадровый, Ю. Сербин)
Кодек: x264
AlexKa Оценка10 из 10 (30 голосов, самая низкая оценка - 9, самая высокая - 10) КатегорияЗарубежные фильмы Раздают7 Качают2 Сидер замечен11-06-2019 2:19:11 (2 минуты назад) Добавлен06-06-2019 19:12:36 (4 дня назад) Размер15.52 GB (16667653266 Bytes)Жанр: драма, криминал
Субтитры: Русские, Английские
Оригинальное название: Once Upon a Time in America
Год выхода: 1984
Выпущено: Ladd Company, The

Если у вас возникли проблемы с закачкой Однажды в Америке / Once Upon a Time in America (1984) BDRip 1080p | Extended Cut, перейдите по ссылке - там вы найдете решение своей проблемы.

Категория: Зарубежные фильмы

 

Скачать Однажды в Америке / Once Upon a Time in America (1984) BDRip 1080p | Extended Cut бесплатно без регистрации

 

Информация
Посетители, находящиеся в группе Гости, не могут оставлять комментарии к данной публикации.
 
 
Скачать Однажды в Америке / Once Upon a Time in America (1984) BDRip 1080p | Extended Cut бесплатно без регистрацииCopyright © 2019 .