Скачать Джози / Josie (2018) WEB-DLRip-AVC от ExKinoRay | HDRezka Studio бесплатно без регистрации







Информация о фильме
Релиз от:
ЗалилО фильме :
Охранник школьной парковки Хэнк, ведет серую и монотонную жизнь, однажды он влюбляется в новую старшеклассницу средней школы, которая недавно появилась в городе. Все складывается прекрасно, далее Хэнк начинает замечать, что в то же время, молодая женщина имеет любовные отношения с панком у которого очень плохие намерения.



Субтитры: Нет


MIОбщее
Уникальный идентификатор : 244854390780228115816683383226383587511 (0xB8353D85BB4F8137B20C48A4CAADD8B7)
Полное имя : D:MOVIESJosie.2017.ExKinoRay.mkv
Формат : Matroska
Версия формата : Version 4 / Version 2
Размер файла : 746 Мбайт
Продолжительность : 1 ч. 27 м.
Общий поток : 1194 Кбит/сек
Дата кодирования : UTC 2018-03-29 10:14:39
Программа кодирования : mkvmerge v15.0.0 ('Duel with the Devil') 64-bit
Библиотека кодирования : libebml v1.3.5 + libmatroska v1.4.5

Видео
Идентификатор : 1
Формат : AVC
Формат/Информация : Advanced Video Codec
Профиль формата : High@L4.1
Параметр CABAC формата : Да
Параметр RefFrames формата : 10 кадров
Идентификатор кодека : V_MPEG4/ISO/AVC
Продолжительность : 1 ч. 27 м.
Битрейт : 1117 Кбит/сек
Ширина : 768 пикселей
Высота : 324 пикселя
Соотношение сторон : 2,40:1
Режим частоты кадров : Постоянный
Частота кадров : 23,976 (24000/1001) кадра/сек
Цветовое пространство : YUV
Субдискретизация насыщенности : 4:2:0
Битовая глубина : 8 бит
Тип развёртки : Прогрессивная
Бит/(Пиксели*Кадры) : 0.187
Размер потока : 698 Мбайт (93%)
Библиотека кодирования : x264 core 155 r2901 7d0ff22
Настройки программы : cabac=1 / ref=10 / deblock=1:-3:-3 / analyse=0x3:0x133 / me=umh / subme=11 / psy=1 / psy_rd=1.00:0.10 / mixed_ref=1 / me_range=32 / chroma_me=1 / trellis=2 / 8x8dct=1 / cqm=0 / deadzone=21,11 / fast_pskip=0 / chroma_qp_offset=-3 / threads=6 / lookahead_threads=1 / sliced_threads=0 / nr=0 / decimate=0 / interlaced=0 / bluray_compat=0 / constrained_intra=0 / bframes=10 / b_pyramid=2 / b_adapt=2 / b_bias=0 / direct=3 / weightb=1 / open_gop=0 / weightp=2 / keyint=240 / keyint_min=23 / scenecut=40 / intra_refresh=0 / rc_lookahead=40 / rc=2pass / mbtree=1 / bitrate=1117 / ratetol=1.0 / qcomp=0.60 / qpmin=0 / qpmax=69 / qpstep=4 / cplxblur=20.0 / qblur=0.5 / vbv_maxrate=50000 / vbv_bufsize=62500 / nal_hrd=none / filler=0 / ip_ratio=1.40 / aq=3:1.00
Default : Да
Forced : Нет

Аудио
Идентификатор : 2
Формат : AAC
Формат/Информация : Advanced Audio Codec
Профиль формата : HE-AAC / LC
Идентификатор кодека : A_AAC
Продолжительность : 1 ч. 27 м.
Битрейт : 76,0 Кбит/сек
Каналы : 2 канала
Расположение каналов : Front: L R
Частота : 48,0 КГц / 24,0 КГц
Частота кадров : 23,438 кадра/сек (1024 SPF)
Метод сжатия : С потерями
Задержка видео : 31 мс.
Размер потока : 47,5 Мбайт (6%)
Язык : Russian
Default : Да
Forced : Нет

Меню
00:00:00.000 : en:01
00:05:50.000 : en:02
00:11:04.000 : en:03
00:17:03.000 : en:04
00:21:20.000 : en:05
00:27:05.000 : en:06
00:32:51.000 : en:07
00:38:03.000 : en:08
00:43:35.000 : en:09
00:49:04.000 : en:10
00:54:18.000 : en:11
01:00:02.000 : en:12
01:05:04.000 : en:13
01:11:02.000 : en:14
01:15:44.000 : en:15
01:22:23.000 : en:16
Скриншоты


В ролях: Софи Тернер, Дилан МакДермотт, Дег Ферч, Джек Килмер, Курт Фуллер, Робин Бартлетт, Ломбардо Бойяр, Джордж Тодд МакЛахлан, Мика Фицджералд, Мики Ферч

Формат: MKV
Название: Джози
Аудио: AAC-HE, 2 ch, ~ 76 Кбит/с
Производство : Boo Pictures, Coalition Group, Eggplant Pictures, Travelling Picture Show Company, The, Waterstone Entertainment
Режиссер: Эрик Инглэнд
Год выхода: 2018
Качество: WEB-DLRip-AVC
Жанр: Триллер, драма
sany771 ОценкаНикто ещё не поставил оценку КатегорияЗарубежные фильмы Раздают1 Качают0 Сидер замечен10-06-2019 19:19:13 (9 часов назад) Добавлен29-03-2018 13:17:52 (15 месяцев назад) Размер746.35 MB (782606838 Bytes)Перевод: Любительский (многоголосый, закадровый) | HDRezka Studio

Оригинальное название: Josie
Продолжительность: 01:27:20
Видео: MPEG-4 AVC, 768x324, ~ 1117 Кбит/с
Выпущено: США

Если у вас возникли проблемы с закачкой Джози / Josie (2018) WEB-DLRip-AVC от ExKinoRay | HDRezka Studio, перейдите по ссылке - там вы найдете решение своей проблемы.

Категория: Зарубежные фильмы

 

Скачать Джози / Josie (2018) WEB-DLRip-AVC от ExKinoRay | HDRezka Studio бесплатно без регистрации

 

Информация
Посетители, находящиеся в группе Гости, не могут оставлять комментарии к данной публикации.
 
 
Скачать Джози / Josie (2018) WEB-DLRip-AVC от ExKinoRay | HDRezka Studio бесплатно без регистрацииCopyright © 2019 .