Скачать Гонка / Rush (2013) BDRip 720p от MediaClub | A бесплатно без регистрации






Информация о фильме
Жанр: Драма, биография, спорт
Перевод: Авторский одноголосый

kaspr ОценкаНикто ещё не поставил оценку КатегорияЗарубежные фильмы Раздают1 Качают0 Сидер замечен20-05-2019 22:19:08 (21 день назад) Добавлен04-04-2014 10:38:30 (63 месяца назад) Размер8.14 GB (8743658131 Bytes)Студия: Action Concept Film- und Stuntproduktion, Cross Creek Pictures, Egoli Tossell Film AG, Exclusive Media Group, Imagine Entertainment, Merced Media Partners, Revolution Films, Working Title Films
Аудио #2: Русский (DTS, 6 ch, 1509 Кбит/с) / Авторский одноголосый (Сергей Визгунов)
Оригинальное название: Rush
Режиссер:  Рон Ховард
Аудио #3: Английский (DTS, 6 ch, 1509 Кбит/с)
Качество: BDRip 720p
Страна: США, Германия, Великобритания
Описание: 70-е годы XX века. Золотое время «Формулы-1»: обтекаемые формы гоночных машин, брутальные на треке и ранимые в обычной жизни гонщики, сексуальные поклонницы, литры шампанского на финише для победителя… Два непримиримых соперника в истории гонок — обаятельный плейбой-англичанин Джеймс Хант и дисциплинированный перфекционист-австриец Ники Лауда — доводят себя до предела физической и психологической выносливости ради триумфа на трассе. Для них нет легких путей к победе и права на ошибку. Единственный промах гонщикам может стоить карьеры и даже жизни.




Семпл

Скриншоты

О релизе За перевод Визгунова спасибо членам клуба е180: foxlight, xerman13, Iceman, ZeDOK, masta, dir, Nadoelo, v1111o, fryak, SavineX78, GKillah, Savely, denis_mgn_1987, Loki1982, uchitel538, phaeton77, Denis2251

За перевод Сербина спасибо членам клуба е180: oleg-k, denis_mgn_1987, Ken, пуля, luka69, MyxAmoP, GKillah, I_Am_Hell, Loki1982, ZeDOK, maximus10-99, Ramis, tide, xerman13, uchitel538, dir, kRIPtograf, kenzo, Denis2251, GummyBe@r, Iceman, olegsoleg, Nick, masta, Rayan, dvd100, dsk71, JI79, Savely, zeleniy
MIОбщее
Уникальный идентификатор : 231650794794260941525995397407368759531 (0xAE4651FAD3387AE98F88410A3AC348EB)
Полное имя : D:Mои раздачиGonka.2013.BDRip.720p-MediaClub.mkv
Формат : Matroska
Версия формата : Version 4 / Version 2
Размер файла : 8,14 Гбайт
Продолжительность : 2 ч. 2 м.
Общий поток : 9529 Кбит/сек
Название фильма : -=MediaClub-kaspr=-
Дата кодирования : UTC 2014-04-04 05:12:22
Программа кодирования : mkvmerge v6.1.0 ('Old Devil') built on Mar 4 2013 09:10:42
Библиотека кодирования : libebml v1.3.0 + libmatroska v1.4.0

Видео
Идентификатор : 1
Формат : AVC
Формат/Информация : Advanced Video Codec
Профиль формата : High@L4.1
Параметр CABAC формата : Да
Параметр ReFrames формата : 9 кадров
Идентификатор кодека : V_MPEG4/ISO/AVC
Продолжительность : 2 ч. 2 м.
Битрейт : 5000 Кбит/сек
Ширина : 1280 пикселей
Высота : 534 пикселя
Соотношение сторон : 2,40:1
Режим частоты кадров : Постоянный
Частота кадров : 23,976 кадра/сек
Цветовое пространство : YUV
Субдискретизация насыщенности : 4:2:0
Битовая глубина : 8 бит
Тип развёртки : Прогрессивная
Бит/(Пиксели*Кадры) : 0.305
Размер потока : 4,11 Гбайт (51%)
Заголовок : -=MediaClub-kaspr=-
Библиотека кодирования : x264 core 142 r2409+42 04be48a tMod [8-bit@4:2:0 X86_64]
Настройки программы : cabac=1 / ref=9 / deblock=1:-3:-3 / analyse=0x3:0x113 / me=umh / subme=11 / psy=1 / fade_compensate=0.00 / psy_rd=1.00:0.20 / mixed_ref=1 / me_range=32 / chroma_me=1 / trellis=2 / 8x8dct=1 / cqm=0 / deadzone=21,11 / fast_pskip=0 / chroma_qp_offset=-3 / threads=12 / lookahead_threads=3 / sliced_threads=0 / nr=0 / decimate=0 / interlaced=0 / bluray_compat=0 / constrained_intra=0 / fgo=0 / bframes=12 / b_pyramid=2 / b_adapt=2 / b_bias=0 / direct=3 / weightb=1 / open_gop=0 / weightp=2 / keyint=240 / keyint_min=23 / scenecut=40 / intra_refresh=0 / rc=2pass / mbtree=0 / bitrate=5000 / ratetol=1.0 / qcomp=0.60 / qpmin=0:0:0 / qpmax=69:69:69 / qpstep=4 / cplxblur=20.0 / qblur=0.5 / ip_ratio=1.40 / pb_ratio=1.30 / aq=2:0.80 / aq-sensitivity=10.00 / aq-factor=1.00:1.00:1.00 / aq2=0 / aq3=0
Default : Да
Forced : Да

Аудио #1
Идентификатор : 2
Формат : DTS
Формат/Информация : Digital Theater Systems
Режим : 16
Параметр Endianness формата : Big
Идентификатор кодека : A_DTS
Продолжительность : 2 ч. 2 м.
Вид битрейта : Постоянный
Битрейт : 1509 Кбит/сек
Каналы : 6 каналов
Расположение каналов : Front: L C R, Side: L R, LFE
Частота : 48,0 КГц
Битовая глубина : 24 бит
Метод сжатия : С потерями
Размер потока : 1,29 Гбайт (16%)
Заголовок : Сербин
Язык : Russian
Default : Да
Forced : Да

Аудио #2
Идентификатор : 3
Формат : DTS
Формат/Информация : Digital Theater Systems
Режим : 16
Параметр Endianness формата : Big
Идентификатор кодека : A_DTS
Продолжительность : 2 ч. 2 м.
Вид битрейта : Постоянный
Битрейт : 1509 Кбит/сек
Каналы : 6 каналов
Расположение каналов : Front: L C R, Side: L R, LFE
Частота : 48,0 КГц
Битовая глубина : 24 бит
Метод сжатия : С потерями
Размер потока : 1,29 Гбайт (16%)
Заголовок : Визгунов
Язык : Russian
Default : Нет
Forced : Нет

Аудио #3
Идентификатор : 4
Формат : DTS
Формат/Информация : Digital Theater Systems
Режим : 16
Параметр Endianness формата : Big
Идентификатор кодека : A_DTS
Продолжительность : 2 ч. 2 м.
Вид битрейта : Постоянный
Битрейт : 1509 Кбит/сек
Каналы : 6 каналов
Расположение каналов : Front: L C R, Side: L R, LFE
Частота : 48,0 КГц
Битовая глубина : 24 бит
Метод сжатия : С потерями
Размер потока : 1,29 Гбайт (16%)
Язык : English
Default : Нет
Forced : Нет

Текст #1
Идентификатор : 5
Формат : UTF-8
Идентификатор кодека : S_TEXT/UTF8
Идентификатор кодека/Информация : UTF-8 Plain Text
Язык : Russian
Default : Нет
Forced : Нет

Текст #2
Идентификатор : 6
Формат : UTF-8
Идентификатор кодека : S_TEXT/UTF8
Идентификатор кодека/Информация : UTF-8 Plain Text
Язык : English
Default : Нет
Forced : Нет

Текст #3
Идентификатор : 7
Формат : UTF-8
Идентификатор кодека : S_TEXT/UTF8
Идентификатор кодека/Информация : UTF-8 Plain Text
Заголовок : SDH
Язык : English
Default : Нет
Forced : Нет

Меню
00:00:00.000 : :Chapter 01
00:04:55.169 : :Chapter 02
00:10:38.638 : :Chapter 03
00:13:52.540 : :Chapter 04
00:20:12.044 : :Chapter 05
00:26:30.380 : :Chapter 06
00:35:34.006 : :Chapter 07
00:39:41.879 : :Chapter 08
00:46:30.037 : :Chapter 09
00:52:59.384 : :Chapter 10
00:58:41.142 : :Chapter 11
01:05:18.623 : :Chapter 12
01:13:20.938 : :Chapter 13
01:23:37.178 : :Chapter 14
01:33:49.582 : :Chapter 15
01:52:51.598 : :Chapter 16


В ролях:  Крис Хемсворт, Оливия Уайлд, Натали Дормер, Даниэль Брюль, Александра Мария Лара, Ли Асквит-Коу, Том Влашиха, Жозефин Де Ла Буме, Джулиан Сигер, Пьерфранческо Фавино

Название: Гонка
Продолжительность: 02:02:20
Релиз: | ЗалилАудио #1: Русский (DTS, 6 ch, 1509 Кбит/с) / Авторский одноголосый (Юрий Сербин)
Субтитры: Русские, английские

Год выпуска: 2013
Видео: MPEG-4 AVC, 5000 Kбит/с, 1280x534, 23.976 кадр/с

Если у вас возникли проблемы с закачкой Гонка / Rush (2013) BDRip 720p от MediaClub | A, перейдите по ссылке - там вы найдете решение своей проблемы.

Категория: Зарубежные фильмы

 

Скачать Гонка / Rush (2013) BDRip 720p от MediaClub | A бесплатно без регистрации

 

Информация
Посетители, находящиеся в группе Гости, не могут оставлять комментарии к данной публикации.
 
 
Скачать Гонка / Rush (2013) BDRip 720p от MediaClub | A бесплатно без регистрацииCopyright © 2019 .