Скачать По дороге с Норманом Ридусом / Ride with Norman Reedus [S02] (2017) WEB-DL 1080p | FOX бесплатно без регистрации






Жанр: Документальный, путешествия
BenderBESTПодробные технические данные
Общее
Уникальный идентификатор : 237375286042539484761726418201213681437 (0xB294D13064D1F8B797DF5320637C3F1D)
Полное имя : D:Ride.with.Norman.Reedus.S02.1080p.WEB-DLRus.Eng_Ride.with.Norman.Reedus.S02E01.Spain.with.Jeffrey.Dean.Morgan.1080p.WEB-DLRus.Eng_.mkv
Формат : Matroska
Версия формата : Version 4 / Version 2
Размер файла : 1,64 Гбайт
Продолжительность : 43 м. 3 с.
Общий поток : 5469 Кбит/сек
Название фильма : Ride with Norman Reedus S02E01 - Reiz by BenderBEST
Дата кодирования : UTC 2018-04-09 16:43:40
Программа кодирования : mkvmerge v6.9.1 ('Blue Panther') 32bit built on Apr 18 2014 18:15:44
Библиотека кодирования : libebml v1.3.0 + libmatroska v1.4.1

Видео
Идентификатор : 1
Формат : AVC
Формат/Информация : Advanced Video Codec
Профиль формата : High@L4
Параметр CABAC формата : Да
Параметр ReFrames формата : 4 кадра
Идентификатор кодека : V_MPEG4/ISO/AVC
Продолжительность : 43 м. 3 с.
Битрейт : 4976 Кбит/сек
Ширина : 1916 пикселей
Высота : 1076 пикселей
Соотношение сторон : 16:9
Режим частоты кадров : Постоянный
Частота кадров : 23,976 (24000/1001) кадра/сек
Цветовое пространство : YUV
Субдискретизация насыщенности : 4:2:0
Битовая глубина : 8 бит
Тип развёртки : Прогрессивная
Бит/(Пиксели*Кадры) : 0.101
Размер потока : 1,50 Гбайт (91%)
Язык : English
Default : Да
Forced : Да
Цветовой диапазон : Limited
Основные цвета : BT.709
Характеристики трансфера : BT.709
Коэффициенты матрицы : BT.709

Аудио #1
Идентификатор : 2
Формат : AC-3
Формат/Информация : Audio Coding 3
Параметр Endianness формата : Big
Идентификатор кодека : A_AC3
Продолжительность : 43 м. 3 с.
Вид битрейта : Постоянный
Битрейт : 192 Кбит/сек
Каналы : 2 канала
Расположение каналов : Front: L R
Частота : 48,0 КГц
Частота кадров : 31,250 кадров/сек (1536 spf)
Битовая глубина : 16 бит
Метод сжатия : С потерями
Размер потока : 59,1 Мбайт (4%)
Заголовок : AC3 2.0 @ 192 kbps - MVO, FOX
Язык : Russian
ServiceKind/ : Complete Main
Default : Да
Forced : Да

Аудио #2
Идентификатор : 3
Формат : AC-3
Формат/Информация : Audio Coding 3
Параметр Endianness формата : Big
Идентификатор кодека : A_AC3
Продолжительность : 43 м. 3 с.
Вид битрейта : Постоянный
Битрейт : 192 Кбит/сек
Каналы : 2 канала
Расположение каналов : Front: L R
Частота : 48,0 КГц
Частота кадров : 31,250 кадров/сек (1536 spf)
Битовая глубина : 16 бит
Метод сжатия : С потерями
Размер потока : 59,1 Мбайт (4%)
Заголовок : AC3 2.0 @ 192 kbps
Язык : English
ServiceKind/ : Complete Main
Default : Нет
Forced : Нет

Текст
Идентификатор : 4
Формат : UTF-8
Идентификатор кодека : S_TEXT/UTF8
Идентификатор кодека/Информация : UTF-8 Plain Text
Язык : English
Default : Нет
Forced : Нет
Скриншоты



ОценкаНикто ещё не поставил оценку КатегорияТелевизор Раздают1 Качают0 Сидер замечен11-06-2019 0:19:12 (2 часа назад) Добавлен21-07-2018 15:45:45 (11 месяц назад) Размер9.95 GB (10687653845 Bytes)Качество: WEB-DL 1080p
Год выпуска: 2017
Реклама: Отсутствует

РелизРелиз - BenderBEST
• Запись с ТВ -Продолжительность: 6 х 00:42:00
Описание: Сериал о путешествиях на мотоцикле, в котором Норман Ридус и приглашенная звезда недели путешествуют в определенную точку Америки на мотоцикле, изучая местную байк-культуру и места для мотоциклистов.



Перевод: Профессиональный (многоголосый закадровый) FOX

Студия: AMC Studios, Clyde Phillips Productions, Lions Gate Television
Видео: MPEG-4 AVC, 1916x1076 [16:9], 23.976 fps, ~ 5000 Kbps
Аудио 1: [Русский] AC3, 48 kHz, 2 ch, 192 Kbps - FOX
Режиссер: Джеф О'Брайан

Формат: MKV
Страна: США
Justin
• Работа c дорогой -Аудио 2: [Английский] AC3, 48 kHz, 2 ch, 192 Kbps

Если у вас возникли проблемы с закачкой По дороге с Норманом Ридусом / Ride with Norman Reedus [S02] (2017) WEB-DL 1080p | FOX, перейдите по ссылке - там вы найдете решение своей проблемы.

Категория: Телевизор

 

Скачать По дороге с Норманом Ридусом / Ride with Norman Reedus [S02] (2017) WEB-DL 1080p | FOX бесплатно без регистрации

 

Информация
Посетители, находящиеся в группе Гости, не могут оставлять комментарии к данной публикации.
 
 
Скачать По дороге с Норманом Ридусом / Ride with Norman Reedus [S02] (2017) WEB-DL 1080p | FOX бесплатно без регистрацииCopyright © 2019 .