Скачать Инструкция по разводу для женщин / Girlfriends' Guide to Divorce [05x01-06 из 13] (2018) WEBRip 1080p | ColdFilm бесплатно без регистрации






Информация о фильме
Перевод: Любительский многоголосый закадровый [ColdFilm]

Релиз от: ЗалилКачество: WEBRip 1080p
Видео: ~5000 Кбит/с, 1920x1080, 29.970 fps
Оригинальное название: Girlfriends' Guide to Divorce
В ролях: Лиза Эдельстейн, Джанин Гарофало, Бо Гарретт, Аланна Юбак, Некар Задеган, Пол Адельштейн

Студия: Universal Cable Productions
Название: Инструкция по разводу для женщин
Аудио: Русский (AC3, 2 ch, 125 Кбит/с)



Скриншоты
MIGeneral
Unique ID : 193431771251648930358912526513036541055 (0x91859AA2B0741746DC2AE8B1F8C33C7F)
Complete name :Girlfriends.Guide.To.Drivorce.S05E01.1080p.ColdFilm.mkv
Format : Matroska
Format version : Version 2
File size : 1.56 GiB
Duration : 43 min 35 s
Overall bit rate : 5 133 kb/s
Encoded date : UTC 2018-06-15 07:19:30 / UTC 2018-06-15 07:19:30
Writing application : Lavf54.63.104
Writing library : Lavf54.63.104

Video
ID : 1
Format : AVC
Format/Info : Advanced Video Codec
Format profile : Main@L4
Format settings : CABAC / 1 Ref Frames
Format settings, CABAC : Yes
Format settings, ReFrames : 1 frame
Codec ID : V_MPEG4/ISO/AVC
Duration : 43 min 35 s
Bit rate : 5 000 kb/s
Width : 1 920 pixels
Height : 1 080 pixels
Display aspect ratio : 16:9
Frame rate mode : Constant
Frame rate : 23.976 (24000/1001) FPS
Color space : YUV
Chroma subsampling : 4:2:0
Bit depth : 8 bits
Scan type : Progressive
Bits/(Pixel*Frame) : 0.101
Stream size : 1.47 GiB (94%)
Writing library : x264 core 129
Default : Yes
Forced : No

Audio
ID : 2
Format : AC-3
Format/Info : Audio Coding 3
Codec ID : A_AC3
Duration : 43 min 35 s
Bit rate mode : Constant
Bit rate : 192 kb/s
Channel(s) : 2 channels
Channel positions : Front: L R
Sampling rate : 44.1 kHz
Frame rate : 28.711 FPS (1536 SPF)
Bit depth : 16 bits
Compression mode : Lossy
Stream size : 59.9 MiB (4%)
Service kind : Complete Main
Default : Yes
Forced : No



Жанр: Комедия, драма
О фильме:
Эбби МакКарти — 40-летняя писательница из Лос-Анджелеса, автор бестселлеров, призванных помочь женщинам наладить личную жизнь. Втайне от окружающих Эбби переживает разрыв с мужем и пытается начать жизнь заново. Теперь она гораздо чаще общается со своими разведенными подругами, нежели с замужними, и обращается к ним за советом. Внезапные перемены в жизни открывают ей целый мир новых возможностей и не испытанных ранее ощущений.


Режиссер: Адам Брукс, Лесли Либман, Роберт Данкан МакНил
coldfilm ОценкаНикто ещё не поставил оценку КатегорияЗарубежные сериалы Раздают0 Качают1 Сидер замечен24-05-2019 17:19:11 (17 дней назад) Добавлен21-07-2018 15:48:40 (11 месяц назад) Размер8.79 GB (9438299049 Bytes)Страна: США
Год выпуска: 2018
Кодек: x264 (AVC)
Продолжительность: 5 x ~ 00:48:00

Если у вас возникли проблемы с закачкой Инструкция по разводу для женщин / Girlfriends' Guide to Divorce [05x01-06 из 13] (2018) WEBRip 1080p | ColdFilm, перейдите по ссылке - там вы найдете решение своей проблемы.

Категория: Зарубежные сериалы

 

Скачать Инструкция по разводу для женщин / Girlfriends' Guide to Divorce [05x01-06 из 13] (2018) WEBRip 1080p | ColdFilm бесплатно без регистрации

 

Информация
Посетители, находящиеся в группе Гости, не могут оставлять комментарии к данной публикации.
 
 
Скачать Инструкция по разводу для женщин / Girlfriends' Guide to Divorce [05x01-06 из 13] (2018) WEBRip 1080p | ColdFilm бесплатно без регистрацииCopyright © 2019 .