Скачать Призрачный мир / Ghost World (2001) HDRip-AVC | P2 | Remastered бесплатно без регистрации






Информация о фильме
Alukard14 Оценка7 из 10 (1 голосов, самая низкая оценка - 7, самая высокая - 7) КатегорияЗарубежные фильмы Раздают2 Качают0 Сидер замечен10-06-2019 22:19:12 (4 минуты назад) Добавлен10-11-2018 14:21:31 (7 месяцев назад) Размер2.17 GB (2330361437 Bytes)Видео: h264 / 2400 kbps / 1024x552 / 23.976 fps
Жанр: Комедия, драма
Название: Призрачный мир
Качество: HDRip-AVC | исх. BDRip 1080p
Перевод: Профессиональный двухголосый

Кодек: x.264
О фильме:
В то время, как все благовоспитанные выпускники средней школы отправились в колледж, наши героини Энид и Ребекка решили, что учиться дальше - это скука смертная и бесполезная трата времени. Гораздо лучше отдохнуть в свое удовольствие; поглядеть, что к чему; ну и, конечно, как следует "перемыть косточки" всем несовершенным представителям рода человеческого. А их, к счастью, повсюду превеликое множество! Но вот однажды, "пулестойкое" сердце нашей язвительной и саркастичной Энид дрогнуло. Это произошло после встречи со скромным и нерешительным холостяком-неудачником, торгующим старыми виниловыми пластинками. Девушку начинает необъяснимым образом тянуть к этому одинокому и застенчивому человеку...




Страна: США, Великобритания, Германия
В ролях: Тора Бёрч, Скарлетт Йоханссон, Стив Бушеми, Брэд Ренфро, Иллеана Дуглас, Боб Бэлабан, Стэйси Трэвис, Чарльз С. Стивенсон мл., Дэйв Шеридан, Том МакГоуэн, Дебра Азар, Брайан Джордж, Пэт Хили, Рини Белл, Ти-Джей Тайн, Эзра Баззингтон, Линдси Жирардо, Джой Биско, Венус ДеМило, Эшли Пелдон, Чачи Питтман, Джэнес Джордан, Кэйли Бриэль Мартин, Александр Форс, Джеймс Си, Пол Кит, Дэвид Кросс, Дж.Дж. Бэд Бой Джонс, Дилан Джонс, Мартин Грэй, Стив Пирсон, Джэйк Ла Ботц, Джонни Айрион, Нат Вуд, Чарльз Шнайдер, Сид Хиллман, Джошуа Вилер, Патрик Фишлер, Дэниэл Грейвз

Релиз от: Alukard14

log
x264 [info]: frame I:1418 Avg QP:17.08 size: 91229
x264 [info]: frame P:14055 Avg QP:19.82 size: 30881
x264 [info]: frame B:144981 Avg QP:21.56 size: 9962
x264 [info]: consecutive B-frames: 1.7% 0.1% 0.2% 0.2% 0.9% 0.3% 0.4% 0.4% 0.5% 0.6% 0.7% 0.6% 93.2%
x264 [info]: mb I I16..4: 3.7% 82.3% 14.0%
x264 [info]: mb P I16..4: 0.2% 9.9% 1.0% P16..4: 31.1% 38.2% 15.7% 0.0% 0.0% skip: 4.0%
x264 [info]: mb B I16..4: 0.0% 0.8% 0.1% B16..8: 34.3% 21.5% 4.7% direct: 5.4% skip:33.3% L0:46.2% L1:44.1% BI: 9.7%
x264 [info]: 8x8 transform intra:85.4% inter:58.2%
x264 [info]: direct mvs spatial:99.5% temporal:0.5%
x264 [info]: coded y,uvDC,uvAC intra: 94.8% 86.5% 66.3% inter: 25.4% 15.6% 3.6%
x264 [info]: i16 v,h,dc,p: 48% 14% 13% 25%
x264 [info]: i8 v,h,dc,ddl,ddr,vr,hd,vl,hu: 11% 7% 9% 10% 14% 14% 12% 12% 12%
x264 [info]: i4 v,h,dc,ddl,ddr,vr,hd,vl,hu: 13% 7% 7% 8% 15% 15% 12% 11% 11%
x264 [info]: i8c dc,h,v,p: 40% 23% 19% 17%
x264 [info]: Weighted P-Frames: Y:4.2% UV:1.6%
x264 [info]: ref P L0: 41.7% 9.8% 21.0% 6.6% 6.6% 3.7% 3.9% 1.7% 1.9% 1.3% 1.5% 0.2% 0.0%
x264 [info]: ref B L0: 69.9% 13.3% 6.5% 3.3% 2.3% 1.8% 1.4% 0.9% 0.4% 0.1%
x264 [info]: ref B L1: 90.0% 10.0%
x264 [info]: kb/s:2400.03

MediaInfo
Общее
Уникальный идентификатор : 212344573921012459398029220433984541481 (0x9FC013CCD566C076B957F72C4E2CD329)
Полное имя : E:TestGhost.World.2001.REMASTERED.HDRip-AVC.by.Alukard14.mkv
Формат : Matroska
Версия формата : Version 2
Размер файла : 2,17 Гбайт
Продолжительность : 1 ч. 51 м.
Общий поток : 2786 Кбит/сек
Дата кодирования : UTC 2018-11-10 01:25:36
Программа кодирования : mkvmerge v6.9.1 ('Blue Panther') 32bit built on Apr 18 2014 18:15:44
Библиотека кодирования : libebml v1.3.0 + libmatroska v1.4.1

Видео
Идентификатор : 1
Формат : AVC
Формат/Информация : Advanced Video Codec
Профиль формата : High@L4.1
Настройки формата : CABAC / 11 Ref Frames
Параметр CABAC формата : Да
Параметр RefFrames формата : 11 кадров
Идентификатор кодека : V_MPEG4/ISO/AVC
Продолжительность : 1 ч. 51 м.
Битрейт : 2400 Кбит/сек
Ширина : 1024 пикселя
Высота : 552 пикселя
Соотношение сторон : 1,85:1
Режим частоты кадров : Постоянный
Частота кадров : 23,976 кадра/сек
Цветовое пространство : YUV
Субдискретизация насыщенности : 4:2:0
Битовая глубина : 8 бит
Тип развёртки : Прогрессивная
Бит/(Пиксели*Кадры) : 0.177
Размер потока : 1,83 Гбайт (84%)
Библиотека кодирования : x264 core 148 r2638 7599210
Настройки программы : cabac=1 / ref=11 / deblock=1:-3:-3 / analyse=0x3:0x113 / me=umh / subme=11 / psy=1 / psy_rd=1.00:0.00 / mixed_ref=1 / me_range=48 / chroma_me=1 / trellis=2 / 8x8dct=1 / cqm=0 / deadzone=21,11 / fast_pskip=0 / chroma_qp_offset=-2 / threads=9 / lookahead_threads=1 / sliced_threads=0 / nr=0 / decimate=0 / interlaced=0 / bluray_compat=0 / constrained_intra=0 / bframes=12 / b_pyramid=2 / b_adapt=0 / b_bias=0 / direct=3 / weightb=1 / open_gop=0 / weightp=2 / keyint=240 / keyint_min=24 / scenecut=40 / intra_refresh=0 / rc_lookahead=40 / rc=2pass / mbtree=0 / bitrate=2400 / ratetol=1.0 / qcomp=0.60 / qpmin=0 / qpmax=69 / qpstep=2 / cplxblur=20.0 / qblur=0.5 / vbv_maxrate=14000 / vbv_bufsize=14000 / nal_hrd=none / filler=0 / ip_ratio=1.40 / pb_ratio=1.30 / aq=1:1.00
Default : Да
Forced : Нет

Аудио
Идентификатор : 2
Формат : AC-3
Формат/Информация : Audio Coding 3
Идентификатор кодека : A_AC3
Продолжительность : 1 ч. 51 м.
Вид битрейта : Постоянный
Битрейт : 384 Кбит/сек
Каналы : 6 каналов
Расположение каналов : Front: L C R, Side: L R, LFE
Частота : 48,0 КГц
Частота кадров : 31,250 кадров/сек (1536 SPF)
Битовая глубина : 16 бит
Метод сжатия : С потерями
Размер потока : 306 Мбайт (14%)
Default : Да
Forced : Нет

Скриншоты
ЗалилГод выхода: 2001
Субтитры: Нет

Режиссер: Терри Цвигофф
Студия: Advanced Medien, Capitol Films, Granada Film Productions, Jersey Shore, Mr. Mudd, United Artists
Продолжительность: 01:51:32
Звук: 48 kHz / 384 kbps
Оригинальное название: Ghost World

Если у вас возникли проблемы с закачкой Призрачный мир / Ghost World (2001) HDRip-AVC | P2 | Remastered, перейдите по ссылке - там вы найдете решение своей проблемы.

Категория: Зарубежные фильмы

 

Скачать Призрачный мир / Ghost World (2001) HDRip-AVC | P2 | Remastered бесплатно без регистрации

 

Информация
Посетители, находящиеся в группе Гости, не могут оставлять комментарии к данной публикации.
 
 
Скачать Призрачный мир / Ghost World (2001) HDRip-AVC | P2 | Remastered бесплатно без регистрацииCopyright © 2019 .