Скачать Мальчики возвращаются / The Boys Are Back (2009) BDRip 720p от NNNB бесплатно без регистрации




Оригинальное название: The Boys Are Back
Перевод: Контейнер (Расширение): MKV
Видео: 1280x544, 4935 Кбит/сек, 24 кадр/сек, 0,295 Бит/[Пиксели*Кадры]
Качество: BDRip 720p
Год выпуска: 2009
Выпущено: Австралия, Великобритания
Аудио №2: английский / AC3 / 5.1 / 48 kHz / 640 kbps /
В ролях: Клайв Оуэн , Эмма Бут , Лора Фрейзер , Джордж МакКэй , Николас МакАнульти , Джулия Блейк , Крис Хейвуд , Эрик Томсон , Наташа Литтл , Льюис Фиц-Джералд , Накия Пиреш , Эмма Ланг
Субтитры: русские, английские
Аудио №1: русский / AC3 / 5.1 / 48 kHz / 448 kbps /Режиссер: Скотт Хикс
Сообщество:

MediaInfo
Format : Matroska
Format version : Version 2
File size : 4.37 GiB
Duration : 1h 43mn
Overall bit rate : 6 022 Kbps
Movie name : The Boys Are Back.(2009).BDRip.720p.[denis100]
Encoded date : UTC 2015-11-18 16:46:25
Writing application : mkvmerge v5.8.0 ('No Sleep / Pillow') built on Sep 2 2012 15:37:04
Writing library : libebml v1.2.3 + libmatroska v1.3.0

Video
ID : 1
Format : AVC
Format/Info : Advanced Video Codec
Format profile : High@L4.1
Format settings, CABAC : Yes
Format settings, ReFrames : 11 frames
Codec ID : V_MPEG4/ISO/AVC
Duration : 1h 43mn
Bit rate : 4 935 Kbps
Width : 1 280 pixels
Height : 544 pixels
Display aspect ratio : 2.35:1
Frame rate : 24.000 fps
Color space : YUV
Chroma subsampling : 4:2:0
Bit depth : 8 bits
Scan type : Progressive
Bits/(Pixel*Frame) : 0.295
Stream size : 3.49 GiB (80%)
Title : The Boys Are Back.(2009).BDRip.720p.[denis100]
Writing library : x264 core 148 r2638 7599210
Encoding settings : cabac=1 / ref=11 / deblock=1:-3:-3 / analyse=0x3:0x133 / me=umh / subme=11 / psy=1 / psy_rd=1.00:0.10 / mixed_ref=1 / me_range=32 / chroma_me=1 / trellis=2 / 8x8dct=1 / cqm=0 / deadzone=21,11 / fast_pskip=0 / chroma_qp_offset=-3 / threads=6 / lookahead_threads=1 / sliced_threads=0 / nr=0 / decimate=1 / interlaced=0 / bluray_compat=0 / constrained_intra=0 / bframes=10 / b_pyramid=2 / b_adapt=2 / b_bias=0 / direct=3 / weightb=1 / open_gop=0 / weightp=2 / keyint=250 / keyint_min=24 / scenecut=40 / intra_refresh=0 / rc=2pass / mbtree=0 / bitrate=4935 / ratetol=1.0 / qcomp=0.60 / qpmin=0 / qpmax=69 / qpstep=4 / cplxblur=20.0 / qblur=0.5 / ip_ratio=1.40 / pb_ratio=1.30 / aq=1:0.90
Language : English
Default : Yes
Forced : No

Audio #1
ID : 2
Format : AC-3
Format/Info : Audio Coding 3
Mode extension : CM (complete main)
Codec ID : A_AC3
Duration : 1h 43mn
Bit rate mode : Constant
Bit rate : 448 Kbps
Channel(s) : 6 channels
Channel positions : Front: L C R, Side: L R, LFE
Sampling rate : 48.0 KHz
Bit depth : 16 bits
Compression mode : Lossy
Stream size : 333 MiB (7%)
Title : Профессиональный многоголосый
Language : Russian
Default : Yes
Forced : No

Audio #2
ID : 3
Format : AC-3
Format/Info : Audio Coding 3
Mode extension : CM (complete main)
Codec ID : A_AC3
Duration : 1h 43mn
Bit rate mode : Constant
Bit rate : 640 Kbps
Channel(s) : 6 channels
Channel positions : Front: L C R, Side: L R, LFE
Sampling rate : 48.0 KHz
Bit depth : 16 bits
Compression mode : Lossy
Stream size : 476 MiB (11%)
Language : English
Default : No
Forced : No

Text #1
ID : 4
Format : UTF-8
Codec ID : S_TEXT/UTF8
Codec ID/Info : UTF-8 Plain Text
Language : Russian
Default : No
Forced : No

Text #2
ID : 5
Format : UTF-8
Codec ID : S_TEXT/UTF8
Codec ID/Info : UTF-8 Plain Text
Language : English
Default : No
Forced : No

Menu
00:00:00.000 : en:00:00:00.000
00:08:33.375 : en:00:08:33.375
00:15:17.333 : en:00:15:17.333
00:22:57.792 : en:00:22:57.792
00:29:29.125 : en:00:29:29.125
00:36:56.250 : en:00:36:56.250
00:45:25.917 : en:00:45:25.917
00:52:16.250 : en:00:52:16.250
00:59:21.542 : en:00:59:21.542
01:06:10.000 : en:01:06:10.000
01:13:52.875 : en:01:13:52.875
01:21:04.542 : en:01:21:04.542
01:28:07.375 : en:01:28:07.375
01:35:59.750 : en:01:35:59.750
01:40:41.792 : en:01:40:41.792
x264
x264 [info]: frame I:1349 Avg QP:14.67 size:124863
x264 [info]: frame P:32613 Avg QP:16.70 size: 48378
x264 [info]: frame B:115661 Avg QP:19.08 size: 18137
Скриншоты ЗалилМальчики возвращаются / The Boys Are Back
Жанр: драма
Сюжет фильма:
Эта история произошла в Южной Австралии. После смерти жены спортивный репортер Джо Варр решает взять на себя полную ответственность за воспитание их шестилетнего сына, вопреки намерениям тещи. В то же время из Англии приезжает его старший сын от первого брака. Теперь Джо придется заново узнавать своих детей и учиться быть отцом, а мальчишкам предстоит принимать важные решения в их жизни, чтобы быть вместе.


Продолжительность: 01:43:54

|Профессиональный многоголосый [Лицензия. R5] |
«Фильм основан на реальных событиях»

Профессиональный многоголосый [Лицензия,R5]

Навигация по главам(Чаптеры): есть
Формат: AVC (библиотека кодирования x.264)
Автор рипа: _denis_100 Оценка9.8 из 10 (4 голосов, самая низкая оценка - 9, самая высокая - 10) КатегорияЗарубежные фильмы Раздают2 Качают0 Сидер замечен10-06-2019 22:19:12 (4 минуты назад) Добавлен18-11-2015 20:15:10 (43 месяца назад) Размер4.37 GB (4692748507 Bytes)Русское название: Мальчики возвращаются

Если у вас возникли проблемы с закачкой Мальчики возвращаются / The Boys Are Back (2009) BDRip 720p от NNNB, перейдите по ссылке - там вы найдете решение своей проблемы.

Категория: Зарубежные фильмы

 

Скачать Мальчики возвращаются / The Boys Are Back (2009) BDRip 720p от NNNB бесплатно без регистрации

 

Информация
Посетители, находящиеся в группе Гости, не могут оставлять комментарии к данной публикации.
 
 
Скачать Мальчики возвращаются / The Boys Are Back (2009) BDRip 720p от NNNB бесплатно без регистрацииCopyright © 2019 .