Скачать Анаконда / Anaconda (1997) BDRip 720p | D, P, A бесплатно без регистрации






Информация о фильме
Аудио #5: AC3, 384 Kbps, 48.0 KHz, 6 ch (Rus) Авторский одноголосый,Звук:
Джон Войт — Пол Сарон,Кодек: x264
Видео: 1280x532 (2,40:1), 23.976 fps, 4180 kbps
Аудио #1: AC3, 640 Kbps, 48.0 KHz, 6 ch (Rus) Дублированный
Айс Кьюб — Дэнни Рич,Оригинальное название: Anaconda
А.Гаврилов
Ю.Живов
Дэнни Трехо — браконьер,Страна: США Бразилия Перу
Аудио #4: AC3, 384 Kbps, 48.0 KHz, 6 ch (Rus) Авторский одноголосый,Эрик Штольц — доктор Стивен Кэл,Перевод: Дублированный, Профессиональный многоголосый, Авторский одноголосый, Оригинал

Soroka1989 Оценка10 из 10 (4 голосов, самая низкая оценка - 10, самая высокая - 10) КатегорияЗарубежные фильмы Раздают5 Качают0 Сидер замечен10-06-2019 21:19:13 (4 минуты назад) Добавлен20-06-2015 21:09:32 (48 месяцев назад) Размер4.25 GB (4558415956 Bytes)Кэри Вюрер — Дэнис Кэлберг,Аудио #3: AC3, 384 Kbps, 48.0 KHz, 6 ch (Rus) Авторский одноголосый,Режиссер: Луис Ллоса

Название: Анаконда
Качество: BDRip 720p
Фрэнк Уэлкер — голос анаконды.

Аудио #7: AC3, 448 Kbps, 48.0 KHz, 6 ch (Eng) Оригинал
Жанр: ужасы, боевик, триллер, приключения
Оуэн Уилсон — Гэри Диксон,Субтитры: Русские (форс., полные), Английские

Скриншоты



MediaInfoФормат : Matroska
Версия формата : Version 2
Размер файла : 4,25 Гбайт
Продолжительность : 1 ч. 29 м.
Общий поток : 6802 Кбит/сек
Дата кодирования : UTC 2015-06-16 11:24:19
Программа кодирования : mkvmerge v5.4.0 ('Piper') built on Mar 10 2012 13:34:39
Библиотека кодирования : libebml v1.2.3 + libmatroska v1.3.0

Видео
Идентификатор : 1
Формат : AVC
Формат/Информация : Advanced Video Codec
Профиль формата : High@L4.1
Параметр CABAC формата : Да
Параметр ReFrames формата : 8 кадров
Идентификатор кодека : V_MPEG4/ISO/AVC
Продолжительность : 1 ч. 29 м.
Битрейт : 4180 Кбит/сек
Ширина : 1280 пикселей
Высота : 532 пикселя
Соотношение сторон : 2,40:1
Режим частоты кадров : Постоянный
Частота кадров : 23,976 кадра/сек
Цветовое пространство : YUV
Субдискретизация насыщенности : 4:2:0
Битовая глубина : 8 бит
Тип развёртки : Прогрессивная
Бит/(Пиксели*Кадры) : 0.256
Размер потока : 2,52 Гбайт (59%)
Заголовок : Anaconda / Анаконда (1997)
Библиотека кодирования : x264 core 133 r2334 a3ac64b
Настройки программы : cabac=1 / ref=8 / deblock=1:-3:-3 / analyse=0x3:0x113 / me=umh / subme=10 / psy=1 / psy_rd=1.00:0.20 / mixed_ref=1 / me_range=32 / chroma_me=1 / trellis=2 / 8x8dct=1 / cqm=0 / deadzone=21,11 / fast_pskip=0 / chroma_qp_offset=-3 / threads=4 / lookahead_threads=1 / sliced_threads=0 / nr=0 / decimate=0 / interlaced=0 / bluray_compat=0 / constrained_intra=0 / bframes=11 / b_pyramid=2 / b_adapt=2 / b_bias=0 / direct=3 / weightb=1 / open_gop=0 / weightp=2 / keyint=240 / keyint_min=23 / scenecut=40 / intra_refresh=0 / rc_lookahead=40 / rc=2pass / mbtree=0 / bitrate=4180 / ratetol=1.0 / qcomp=0.60 / qpmin=0 / qpmax=69 / qpstep=4 / cplxblur=20.0 / qblur=0.5 / vbv_maxrate=50000 / vbv_bufsize=50000 / nal_hrd=none / ip_ratio=1.40 / pb_ratio=1.30 / aq=1:1.00
Язык : English
Default : Да
Forced : Нет

Аудио #1
Идентификатор : 2
Формат : AC-3
Формат/Информация : Audio Coding 3
Расширение режима : CM (complete main)
Параметр Endianness формата : Big
Идентификатор кодека : A_AC3
Продолжительность : 1 ч. 29 м.
Вид битрейта : Постоянный
Битрейт : 640 Кбит/сек
Каналы : 6 каналов
Расположение каналов : Front: L C R, Side: L R, LFE
Частота : 48,0 КГц
Битовая глубина : 16 бит
Метод сжатия : С потерями
Размер потока : 409 Мбайт (9%)
Заголовок : DUB (Russian)
Язык : Russian
Default : Да
Forced : Нет

Аудио #2
Идентификатор : 3
Формат : AC-3
Формат/Информация : Audio Coding 3
Расширение режима : CM (complete main)
Параметр Endianness формата : Big
Идентификатор кодека : A_AC3
Продолжительность : 1 ч. 29 м.
Вид битрейта : Постоянный
Битрейт : 192 Кбит/сек
Каналы : 2 канала
Расположение каналов : Front: L R
Частота : 48,0 КГц
Битовая глубина : 16 бит
Метод сжатия : С потерями
Размер потока : 123 Мбайт (3%)
Заголовок : MVO (Russian)
Язык : Russian
Default : Нет
Forced : Нет

Аудио #3
Идентификатор : 4
Формат : AC-3
Формат/Информация : Audio Coding 3
Расширение режима : CM (complete main)
Параметр Endianness формата : Big
Идентификатор кодека : A_AC3
Продолжительность : 1 ч. 29 м.
Вид битрейта : Постоянный
Битрейт : 384 Кбит/сек
Каналы : 6 каналов
Расположение каналов : Front: L C R, Side: L R, LFE
Частота : 48,0 КГц
Битовая глубина : 16 бит
Метод сжатия : С потерями
Размер потока : 245 Мбайт (6%)
Заголовок : AVO (А.Гаврилов)
Язык : Russian
Default : Нет
Forced : Нет

Аудио #4
Идентификатор : 5
Формат : AC-3
Формат/Информация : Audio Coding 3
Расширение режима : CM (complete main)
Параметр Endianness формата : Big
Идентификатор кодека : A_AC3
Продолжительность : 1 ч. 29 м.
Вид битрейта : Постоянный
Битрейт : 384 Кбит/сек
Каналы : 6 каналов
Расположение каналов : Front: L C R, Side: L R, LFE
Частота : 48,0 КГц
Битовая глубина : 16 бит
Метод сжатия : С потерями
Размер потока : 245 Мбайт (6%)
Заголовок : AVO (Ю.Живов)
Язык : Russian
Default : Нет
Forced : Нет

Аудио #5
Идентификатор : 6
Формат : AC-3
Формат/Информация : Audio Coding 3
Расширение режима : CM (complete main)
Параметр Endianness формата : Big
Идентификатор кодека : A_AC3
Продолжительность : 1 ч. 29 м.
Вид битрейта : Постоянный
Битрейт : 384 Кбит/сек
Каналы : 6 каналов
Расположение каналов : Front: L C R, Side: L R, LFE
Частота : 48,0 КГц
Битовая глубина : 16 бит
Метод сжатия : С потерями
Размер потока : 245 Мбайт (6%)
Заголовок : AVO (Е.Хрусталев)
Язык : Russian
Default : Нет
Forced : Нет

Аудио #6
Идентификатор : 7
Формат : AC-3
Формат/Информация : Audio Coding 3
Профиль формата : Dolby Digital
Расширение режима : CM (complete main)
Параметр Endianness формата : Big
Идентификатор кодека : A_AC3
Продолжительность : 1 ч. 29 м.
Вид битрейта : Постоянный
Битрейт : 192 Кбит/сек
Каналы : 2 канала
Расположение каналов : Front: L R
Частота : 48,0 КГц
Битовая глубина : 16 бит
Метод сжатия : С потерями
Размер потока : 123 Мбайт (3%)
Заголовок : AVO (Н.Антонов)
Язык : Russian
Default : Нет
Forced : Нет

Аудио #7
Идентификатор : 8
Формат : AC-3
Формат/Информация : Audio Coding 3
Расширение режима : CM (complete main)
Параметр Endianness формата : Big
Идентификатор кодека : A_AC3
Продолжительность : 1 ч. 29 м.
Вид битрейта : Постоянный
Битрейт : 448 Кбит/сек
Каналы : 6 каналов
Расположение каналов : Front: L C R, Side: L R, LFE
Частота : 48,0 КГц
Битовая глубина : 16 бит
Метод сжатия : С потерями
Задержка видео : 32 мс.
Размер потока : 286 Мбайт (7%)
Заголовок : Original (English)
Язык : English
Default : Нет
Forced : Нет

Текст #1
Идентификатор : 9
Формат : UTF-8
Идентификатор кодека : S_TEXT/UTF8
Идентификатор кодека/Информация : UTF-8 Plain Text
Заголовок : Rus forced
Язык : Russian
Default : Да
Forced : Да

Текст #2
Идентификатор : 10
Формат : UTF-8
Идентификатор кодека : S_TEXT/UTF8
Идентификатор кодека/Информация : UTF-8 Plain Text
Заголовок : Rus
Язык : Russian
Default : Нет
Forced : Нет

Текст #3
Идентификатор : 11
Формат : UTF-8
Идентификатор кодека : S_TEXT/UTF8
Идентификатор кодека/Информация : UTF-8 Plain Text
Заголовок : Eng
Язык : English
Default : Нет
Forced : Нет

Меню
00:00:00.000 : en:Start
00:04:32.898 : en:Better Death
00:11:48.166 : en:Jungle Hotel
00:19:30.795 : en:Paul Sarone
00:25:17.516 : en:Fish Story
00:30:51.767 : en:Rap Rap
00:37:24.451 : en:Snake Totem
00:39:08.179 : en:Wild Sounds
00:49:12.783 : en:Wild Boar
00:54:21.341 : en:A Caught Rope
00:59:44.331 : en:Tracheotomy
01:04:41.628 : en:Heading Back
01:11:22.737 : en:Something New
01:15:52.548 : en:Blowing It
01:19:48.450 : en:Treasure Hunt
01:22:53.343 : en:Squeezing Mateo ЗалилО фильме:
Команда исследователей отправляется на поиски затерянных индейских племен в самое сердце таинственных джунглей Амазонки. Наслаждаясь пейзажами великой реки, они не подозревают, что их проводник — сумасшедший охотник, помешавшийся на идее поймать гигантскую змею.

Никто не верит его рассказам о мистическом хищнике, пока не появляется первая жертва, и их путешествие превращается в борьбу за выживание. Анаконда не ждет охотников, она сама — охотник.



Винсент Кастелланос — Матео,Е.Хрусталев
Студия: Columbia Pictures, Sony Pictures Entertainment
Год выхода: 1997
Аудио #2: AC3, 192 Kbps, 48.0 KHz, 2 ch (Rus) Профессиональный многоголосый
Джонатан Хайд — Уоррен Уэстридж,Аудио #6: AC3, 192 Kbps, 48.0 KHz, 2 ch (Rus) Авторский одноголосый,В ролях:
Продолжительность: 01:29:22
Дженнифер Лопес — Терри Флорес,Н.Антонов

Если у вас возникли проблемы с закачкой Анаконда / Anaconda (1997) BDRip 720p | D, P, A, перейдите по ссылке - там вы найдете решение своей проблемы.

Категория: Зарубежные фильмы

 

Скачать Анаконда / Anaconda (1997) BDRip 720p | D, P, A бесплатно без регистрации

 

Информация
Посетители, находящиеся в группе Гости, не могут оставлять комментарии к данной публикации.
 
 
Скачать Анаконда / Anaconda (1997) BDRip 720p | D, P, A бесплатно без регистрацииCopyright © 2019 .