Скачать Эксперимент / The Experiment (2010) BDRip 1080p | P, P2 бесплатно без регистрации






Информация о фильме
Перевод: Профессиональный многоголосый, профессиональный двухголосый

Аудио #4: Английский ( АС3, 6ch, 384 Кбит/с, 48.0 KHz)
Качество: BDRip 1080p
В ролях: Эдриан Броуди, Форест Уитакер, Кэм Жиганде, Клифтон Коллинз мл., Этан Кон, Фишер Стивенс, Трэвис Фиммел, Дэвид Баннер, Джейсон Лью, Дэмиен Лик, Мэгги Грэйс, Роб Майорано, Рэйчел О'Мира, Джинн Хопсон, Джек Мишлер, Росс Вандер Верф, Мэтт Харвэлл, Стив Мэтьюз, Рональд Чвала, Майк Смит, Мэтью Дью, Мэг Меркенс, Эрин Кирнан, Уильям С. Коулмэн, Ингрид Кори, Брэндон Адамсон, Майк Баргин, Рори Маркхам, Пит Паулусма, Марио Сциорротта, Джэй Виллвок, Кэлси Уотсон

Аудио #2: Украинский ( АС3, 6ch, 448 Кбит/с, 48.0 KHz) Профессиональный (двухголосый закадровый) [1+1]
Страна: США
Продолжительность: 01:36:05
Аудио #1: Русский ( АС3, 6ch, 384 Кбит/с, 48.0 KHz) Профессиональный (многоголосый закадровый) [R5, студия СВ Дубль]
Субтитры: pусские, английские
MediaInfo
General
Unique ID : 196894606878594417281090976214828512904 (0x9420859D0BCF4E71BF4C06D7C940F688)
Complete name : C:UsersUSERDesktopЭксперимент 2010The.Experiment.2010.BDRip.1080p.mkv
Format : Matroska
Format version : Version 4 / Version 2
File size : 6.45 GiB
Duration : 1 h 36 min
Overall bit rate : 9 610 kb/s
Movie name : optik.1557
Encoded date : UTC 2018-04-15 08:21:46
Writing application : mkvmerge v7.1.0 ('Good Love') 64bit built on Jul 27 2014 13:06:55
Writing library : libebml v1.3.0 + libmatroska v1.4.1

Video
ID : 1
Format : AVC
Format/Info : Advanced Video Codec
Format profile : High@L4.1
Format settings : CABAC / 5 Ref Frames
Format settings, CABAC : Yes
Format settings, ReFrames : 5 frames
Codec ID : V_MPEG4/ISO/AVC
Duration : 1 h 36 min
Bit rate : 8 209 kb/s
Width : 1 920 pixels
Height : 798 pixels
Display aspect ratio : 2.40:1
Frame rate mode : Constant
Frame rate : 23.976 FPS
Color space : YUV
Chroma subsampling : 4:2:0
Bit depth : 8 bits
Scan type : Progressive
Bits/(Pixel*Frame) : 0.223
Stream size : 5.50 GiB (85%)
Writing library : x264 core 102 r1666 d058f37
Encoding settings : cabac=1 / ref=5 / deblock=1:-2:-2 / analyse=0x3:0x113 / me=umh / subme=10 / psy=1 / psy_rd=1.05:0.10 / mixed_ref=1 / me_range=32 / chroma_me=1 / trellis=2 / 8x8dct=1 / cqm=2 / deadzone=21,11 / fast_pskip=0 / chroma_qp_offset=-2 / threads=12 / sliced_threads=0 / nr=0 / decimate=1 / interlaced=0 / constrained_intra=0 / bframes=6 / b_pyramid=2 / b_adapt=2 / b_bias=0 / direct=3 / weightb=1 / open_gop=0 / weightp=2 / keyint=250 / keyint_min=25 / scenecut=40 / intra_refresh=0 / rc_lookahead=50 / rc=2pass / mbtree=1 / bitrate=8209 / ratetol=2.0 / qcomp=0.70 / qpmin=10 / qpmax=51 / qpstep=4 / cplxblur=20.0 / qblur=0.5 / vbv_maxrate=50000 / vbv_bufsize=50000 / ip_ratio=1.40 / aq=1:0.80 / nal_hrd=none
Language : English
Default : No
Forced : No

Audio #1
ID : 2
Format : AC-3
Format/Info : Audio Coding 3
Codec ID : A_AC3
Duration : 1 h 36 min
Bit rate mode : Constant
Bit rate : 384 kb/s
Channel(s) : 6 channels
Channel positions : Front: L C R, Side: L R, LFE
Sampling rate : 48.0 kHz
Frame rate : 31.250 FPS (1536 SPF)
Bit depth : 16 bits
Compression mode : Lossy
Stream size : 264 MiB (4%)
Title : Профессиональный (многоголосый закадровый) [R5, студия СВ Дубль]
Language : Russian
Service kind : Complete Main
Default : Yes
Forced : No

Audio #2
ID : 3
Format : AC-3
Format/Info : Audio Coding 3
Codec ID : A_AC3
Duration : 1 h 35 min
Bit rate mode : Constant
Bit rate : 448 kb/s
Channel(s) : 6 channels
Channel positions : Front: L C R, Side: L R, LFE
Sampling rate : 48.0 kHz
Frame rate : 31.250 FPS (1536 SPF)
Bit depth : 16 bits
Compression mode : Lossy
Stream size : 307 MiB (5%)
Title : Профессиональный (двухголосый закадровый) [1+1]
Language : Ukrainian
Service kind : Complete Main
Default : No
Forced : No

Audio #3
ID : 4
Format : AC-3
Format/Info : Audio Coding 3
Codec ID : A_AC3
Duration : 1 h 36 min
Bit rate mode : Constant
Bit rate : 192 kb/s
Channel(s) : 2 channels
Channel positions : Front: L R
Sampling rate : 48.0 kHz
Frame rate : 31.250 FPS (1536 SPF)
Bit depth : 16 bits
Compression mode : Lossy
Stream size : 132 MiB (2%)
Title : Профессиональный (двухголосый закадровый)
Language : Russian
Service kind : Complete Main
Default : No
Forced : No

Audio #4
ID : 5
Format : AC-3
Format/Info : Audio Coding 3
Codec ID : A_AC3
Duration : 1 h 36 min
Bit rate mode : Constant
Bit rate : 384 kb/s
Channel(s) : 6 channels
Channel positions : Front: L C R, Side: L R, LFE
Sampling rate : 48.0 kHz
Frame rate : 31.250 FPS (1536 SPF)
Bit depth : 16 bits
Compression mode : Lossy
Stream size : 264 MiB (4%)
Language : English
Service kind : Complete Main
Default : No
Forced : No

Text #1
ID : 6
Format : UTF-8
Codec ID : S_TEXT/UTF8
Codec ID/Info : UTF-8 Plain Text
Duration : 1 h 27 min
Bit rate : 69 b/s
Count of elements : 935
Stream size : 44.6 KiB (0%)
Language : Russian
Default : No
Forced : No

Text #2
ID : 7
Format : UTF-8
Codec ID : S_TEXT/UTF8
Codec ID/Info : UTF-8 Plain Text
Duration : 1 h 27 min
Bit rate : 48 b/s
Count of elements : 862
Stream size : 31.0 KiB (0%)
Language : English
Default : No
Forced : No

Menu
00:00:00.000 : en:00:00:00.000
00:05:45.345 : en:00:05:45.345
00:11:57.342 : en:00:11:57.342
00:15:20.920 : en:00:15:20.920
00:18:46.292 : en:00:18:46.292
00:24:02.066 : en:00:24:02.066
00:30:56.855 : en:00:30:56.855
00:34:45.250 : en:00:34:45.250
00:39:33.371 : en:00:39:33.371
00:48:22.900 : en:00:48:22.900
00:52:04.121 : en:00:52:04.121
00:53:20.823 : en:00:53:20.823
00:59:42.078 : en:00:59:42.078
01:08:28.688 : en:01:08:28.688
01:12:35.518 : en:01:12:35.518
01:17:56.046 : en:01:17:56.046
01:21:25.881 : en:01:21:25.881
01:29:09.886 : en:01:29:09.886
Скриншоты ЗалилЖанр: Триллер, драма
Оригинальное название: The Experiment
Аудио #3: Русский ( АС3, 2ch, 192 Кбит/с, 48.0 KHz) Профессиональный (двухголосый закадровый)
О фильме:
Когда ученые решили провести уникальное исследование психики человека, никто и подумать не мог, чем все это закончится. Двадцать шесть обывателей заперты по разные стороны решетки, одни играют роль заключенных, другие — охранников. Они согласились на это добровольно. Им казалось, что будет весело. Но за железными засовами даже самая невинная шутка может довести человека до безумия. Сколько времени пройдет до того, как прольется первая кровь?



Режиссер: Пол Шойринг
Кодек: x.264
Год выхода: 2010
Студия: Adelstein-Parouse Productions, Inferno Entertainment, Magnet Media Group, Magnet Media Productions, Mercator Pictures
Звук:
Название: Эксперимент
Видео: MPEG-4 AVC, 1920x798, ~8209 Kбит/с, 23.976 кадр/с
ussr2011 ОценкаНикто ещё не поставил оценку КатегорияЗарубежные фильмы Раздают10 Качают2 Сидер замечен10-06-2019 19:19:13 (4 минуты назад) Добавлен28-04-2018 13:11:30 (14 месяца назад) Размер6.45 GB (6926132807 Bytes)

Если у вас возникли проблемы с закачкой Эксперимент / The Experiment (2010) BDRip 1080p | P, P2, перейдите по ссылке - там вы найдете решение своей проблемы.

Категория: Зарубежные фильмы

 

Скачать Эксперимент / The Experiment (2010) BDRip 1080p | P, P2 бесплатно без регистрации

 

Информация
Посетители, находящиеся в группе Гости, не могут оставлять комментарии к данной публикации.
 
 
Скачать Эксперимент / The Experiment (2010) BDRip 1080p | P, P2 бесплатно без регистрацииCopyright © 2019 .