Скачать На грани / The Edge (1997) BDRip 720p от KORSAR | P, A бесплатно без регистрации






mister.hats Оценка10 из 10 (1 голосов, самая низкая оценка - 10, самая высокая - 10) КатегорияЗарубежные фильмы Раздают8 Качают3 Сидер замечен10-06-2019 18:19:13 (4 минуты назад) Добавлен04-08-2018 1:05:23 (10 месяцев назад) Размер8.57 GB (9200642437 Bytes)Жанр: драма, триллер
Описание: Миллиардер Чарльз Морс отправляется со своей молодой женой, супермоделью Микки, на Аляску для фотосъемок. Модный профессиональный фотограф Роберт Грин убедил их, что именно там есть место, которое идеально подходит для съемок. В поисках они улетают намного дальше, чем предполагали.
Их маленький самолет терпит крушение при столкновении с птицами и падает в озеро. Пилот погиб, остальные спаслись… Но как выжить вдали от цивилизации? Чтобы спастись в лесу, полном диких животных, они должны полагаться только друг на друга. До спасения остается недолго… Но Чарльз начинает подозревать свою жену в связи с Робертом.



Год выпуска: 1997
Аудио 2: Русский, AC-3, 48,0 КГц, 6 каналов, 384 Кбит/сек - MVO, R5
Перевод: Профессиональный (многоголосый закадровый), Авторский
Студия: XX Century Fox
Субтитры: Русские, английские
Страна: США
Аудио 4: Русский, AC-3, 48,0 КГц, 2 каналов, 224 Кбит/сек - MVO, Премьер Видео Фильм
Главы: Есть

Обложки
Скриншоты

Инфо файл
x264 [info]: frame I:1062 Avg QP:17.89 size:158145
x264 [info]: frame P:37704 Avg QP:20.04 size: 74279
x264 [info]: frame B:130465 Avg QP:21.71 size: 29584

Общее
Уникальный идентификатор : 254945092393546974916888450925790432924 (0xBFCCA385E02A6C58B8A99D5B68AB0E9C)
Полное имя : H:На грани 1997_BDRip 720p_KORSAR.mkv
Формат : Matroska
Версия формата : Version 2
Размер файла : 8,57 Гбайт
Продолжительность : 1 ч. 57 м.
Общий поток : 10,4 Мбит/сек
Название фильма : The Edge (1997)
Дата кодирования : UTC 2018-02-06 10:22:42
Программа кодирования : mkvmerge v5.8.0 ('No Sleep / Pillow') built on Sep 2 2012 15:37:04
Библиотека кодирования : libebml v1.2.3 + libmatroska v1.3.0

Видео
Идентификатор : 1
Формат : AVC
Формат/Информация : Advanced Video Codec
Профиль формата : High@L4.1
Настройки формата : CABAC / 12 Ref Frames
Параметр CABAC формата : Да
Параметр RefFrames формата : 12 кадров
Идентификатор кодека : V_MPEG4/ISO/AVC
Продолжительность : 1 ч. 57 м.
Битрейт : 7750 Кбит/сек
Ширина : 1278 пикселей
Высота : 542 пикселя
Соотношение сторон : 2,35:1
Режим частоты кадров : Постоянный
Частота кадров : 24,000 кадра/сек
Цветовое пространство : YUV
Субдискретизация насыщенности : 4:2:0
Битовая глубина : 8 бит
Тип развёртки : Прогрессивная
Бит/(Пиксели*Кадры) : 0.466
Размер потока : 6,19 Гбайт (72%)
Библиотека кодирования : x264 core 152 r2851kMod ba24899
Настройки программы : cabac=1 / ref=12 / deblock=1:-2:-2 / analyse=0x3:0x113 / me=umh / subme=11 / psy=1 / fade_compensate=0.00 / psy_rd=1.03:0.10 / mixed_ref=1 / me_range=48 / chroma_me=1 / trellis=2 / 8x8dct=1 / cqm=0 / deadzone=21,11 / fast_pskip=0 / chroma_qp_offset=-3 / threads=12 / lookahead_threads=3 / sliced_threads=0 / nr=0 / decimate=0 / interlaced=0 / bluray_compat=0 / constrained_intra=0 / bframes=12 / b_pyramid=2 / b_adapt=2 / b_bias=0 / direct=3 / weightb=1 / open_gop=0 / weightp=2 / keyint=240 / keyint_min=24 / scenecut=40 / intra_refresh=0 / rc_lookahead=40 / rc=2pass / mbtree=0 / bitrate=7750 / ratetol=1.0 / qcomp=0.60 / qpmin=0 / qpmax=39 / qpstep=4 / cplxblur=20.0 / qblur=0.5 / vbv_maxrate=50000 / vbv_bufsize=62500 / nal_hrd=none / filler=0 / ip_ratio=1.25 / pb_ratio=1.30 / aq=1:1.00
Язык : English
Default : Да
Forced : Нет
Цветовой диапазон : Limited
Основные цвета : BT.709
Характеристики трансфера : BT.709
Коэффициенты матрицы : BT.709

Аудио #1
Идентификатор : 2
Формат : AC-3
Формат/Информация : Audio Coding 3
Параметр Endianness формата : Big
Идентификатор кодека : A_AC3
Продолжительность : 1 ч. 57 м.
Вид битрейта : Постоянный
Битрейт : 384 Кбит/сек
Каналы : 6 каналов
Расположение каналов : Front: L C R, Side: L R, LFE
Частота : 48,0 КГц
Частота кадров : 31,250 кадров/сек (1536 SPF)
Битовая глубина : 16 бит
Метод сжатия : С потерями
Размер потока : 323 Мбайт (4%)
Заголовок : MVO Супербит
Язык : Russian
Default : Да
Forced : Нет

Аудио #2
Идентификатор : 3
Формат : AC-3
Формат/Информация : Audio Coding 3
Параметр Endianness формата : Big
Идентификатор кодека : A_AC3
Продолжительность : 1 ч. 57 м.
Вид битрейта : Постоянный
Битрейт : 384 Кбит/сек
Каналы : 6 каналов
Расположение каналов : Front: L C R, Side: L R, LFE
Частота : 48,0 КГц
Частота кадров : 31,250 кадров/сек (1536 SPF)
Битовая глубина : 16 бит
Метод сжатия : С потерями
Размер потока : 323 Мбайт (4%)
Заголовок : MVO R5
Язык : Russian
Default : Нет
Forced : Нет

Аудио #3
Идентификатор : 4
Формат : AC-3
Формат/Информация : Audio Coding 3
Параметр Endianness формата : Big
Идентификатор кодека : A_AC3
Продолжительность : 1 ч. 57 м.
Вид битрейта : Постоянный
Битрейт : 224 Кбит/сек
Каналы : 2 канала
Расположение каналов : Front: L R
Частота : 48,0 КГц
Частота кадров : 31,250 кадров/сек (1536 SPF)
Битовая глубина : 16 бит
Метод сжатия : С потерями
Размер потока : 188 Мбайт (2%)
Заголовок : MVO 1 канал
Язык : Russian
Default : Нет
Forced : Нет

Аудио #4
Идентификатор : 5
Формат : AC-3
Формат/Информация : Audio Coding 3
Параметр Endianness формата : Big
Идентификатор кодека : A_AC3
Продолжительность : 1 ч. 57 м.
Вид битрейта : Постоянный
Битрейт : 224 Кбит/сек
Каналы : 2 канала
Расположение каналов : Front: L R
Частота : 48,0 КГц
Частота кадров : 31,250 кадров/сек (1536 SPF)
Битовая глубина : 16 бит
Метод сжатия : С потерями
Размер потока : 188 Мбайт (2%)
Заголовок : DVO Премьер Видео Фильм
Язык : Russian
Default : Нет
Forced : Нет

Аудио #5
Идентификатор : 6
Формат : AC-3
Формат/Информация : Audio Coding 3
Параметр Endianness формата : Big
Идентификатор кодека : A_AC3
Продолжительность : 1 ч. 57 м.
Вид битрейта : Постоянный
Битрейт : 192 Кбит/сек
Каналы : 2 канала
Расположение каналов : Front: L R
Частота : 48,0 КГц
Частота кадров : 31,250 кадров/сек (1536 SPF)
Битовая глубина : 16 бит
Метод сжатия : С потерями
Размер потока : 161 Мбайт (2%)
Заголовок : AVO Кашкин
Язык : Russian
Default : Нет
Forced : Нет

Аудио #6
Идентификатор : 7
Формат : AC-3
Формат/Информация : Audio Coding 3
Параметр Endianness формата : Big
Идентификатор кодека : A_AC3
Продолжительность : 1 ч. 57 м.
Вид битрейта : Постоянный
Битрейт : 384 Кбит/сек
Каналы : 6 каналов
Расположение каналов : Front: L C R, Side: L R, LFE
Частота : 48,0 КГц
Частота кадров : 31,250 кадров/сек (1536 SPF)
Битовая глубина : 16 бит
Метод сжатия : С потерями
Размер потока : 323 Мбайт (4%)
Заголовок : AVO Живов
Язык : Russian
Default : Нет
Forced : Нет

Аудио #7
Идентификатор : 8
Формат : AC-3
Формат/Информация : Audio Coding 3
Параметр Endianness формата : Big
Идентификатор кодека : A_AC3
Продолжительность : 1 ч. 57 м.
Вид битрейта : Постоянный
Битрейт : 448 Кбит/сек
Каналы : 6 каналов
Расположение каналов : Front: L C R, Side: L R, LFE
Частота : 48,0 КГц
Частота кадров : 31,250 кадров/сек (1536 SPF)
Битовая глубина : 16 бит
Метод сжатия : С потерями
Размер потока : 377 Мбайт (4%)
Заголовок : Гаврилов
Язык : Russian
Default : Нет
Forced : Нет

Аудио #8
Идентификатор : 9
Формат : AC-3
Формат/Информация : Audio Coding 3
Параметр Endianness формата : Big
Идентификатор кодека : A_AC3
Продолжительность : 1 ч. 57 м.
Вид битрейта : Постоянный
Битрейт : 448 Кбит/сек
Каналы : 6 каналов
Расположение каналов : Front: L C R, Side: L R, LFE
Частота : 48,0 КГц
Частота кадров : 31,250 кадров/сек (1536 SPF)
Битовая глубина : 16 бит
Метод сжатия : С потерями
Размер потока : 377 Мбайт (4%)
Язык : English
Default : Нет
Forced : Нет

Текст #1
Идентификатор : 10
Формат : UTF-8
Идентификатор кодека : S_TEXT/UTF8
Идентификатор кодека/Информация : UTF-8 Plain Text
Заголовок : srt
Язык : Russian
Default : Нет
Forced : Нет

Текст #2
Идентификатор : 11
Формат : UTF-8
Идентификатор кодека : S_TEXT/UTF8
Идентификатор кодека/Информация : UTF-8 Plain Text
Заголовок : srt
Язык : English
Default : Нет
Forced : Нет

Меню
00:00:00.000 : en:00:00:00 (Chapter 1)
00:06:14.666 : en:00:06:14 (Chapter 2)
00:11:25.083 : en:00:11:25 (Chapter 3)
00:16:50.583 : en:00:16:50 (Chapter 4)
00:21:37.541 : en:00:21:37 (Chapter 5)
00:27:42.208 : en:00:27:42 (Chapter 6)
00:33:19.958 : en:00:33:19 (Chapter 7)
00:38:02.333 : en:00:38:02 (Chapter 8)
00:45:53.458 : en:00:45:53 (Chapter 9)
00:51:54.000 : en:00:51:54 (Chapter 10)
00:58:06.208 : en:00:58:06 (Chapter 11)
01:05:34.333 : en:01:05:34 (Chapter 12)
01:12:05.875 : en:01:12:05 (Chapter 13)
01:15:38.541 : en:01:15:38 (Chapter 14)
01:25:00.041 : en:01:25:00 (Chapter 15)
01:29:52.666 : en:01:29:52 (Chapter 16)
01:35:17.000 : en:01:35:17 (Chapter 17)
01:41:50.125 : en:01:41:50 (Chapter 18)
01:46:44.416 : en:01:46:44 (Chapter 19)
01:52:47.750 : en:01:52:47 (Chapter 20)
01:57:24.250 : en:01:57:24 (Chapter 21)


ЗалилАудио 7: Русский, AC-3, 48,0 КГц, 6 каналов, 448 Кбит/сек - AVO, Гаврилов
Продолжительность: 01:57:31
Режиссер: Ли Тамахори / Lee Tamahor
В ролях: Энтони Хопкинс, Алек Болдуин, Эль Макферсон, Хэролд Перрино, Л. К. Джонс, Кэтлин Уилхойт, Дэвид Линдстед, Марк Кили, Эли Габэй, Ларри Муссер, Брайан Арнольд, Боб Бойд, Келса Кинсли, Гордон Тутусис, Рэнди Бёрч, Лоуренс Лефевр, Брайан Стил

Кодек: х264
Качество: BDRip 720p
Аудио 8: Английский, AC-3, 48,0 КГц, 6 каналов, 448 Кбит/сек - Оригинал
На грани / The Edge
Видео: MPEG-4 AVC, 1278х542, 24,000 fps, 7750 Кбит/с
Аудио 1: Русский, AC-3, 48,0 КГц, 6 каналов, 384 Кбит/сек - MVO, Супербит
Аудио 3: Русский, AC-3, 48,0 КГц, 2 каналов, 224 Кбит/сек - MVO, 1 канал
Аудио 5: Русский, AC-3, 48,0 КГц, 2 каналов, 192 Кбит/сек - AVO, Кашкин
Аудио 6: Русский, AC-3, 48,0 КГц, 6 каналов, 384 Кбит/сек - AVO, Живов

Если у вас возникли проблемы с закачкой На грани / The Edge (1997) BDRip 720p от KORSAR | P, A, перейдите по ссылке - там вы найдете решение своей проблемы.

Категория: Зарубежные фильмы

 

Скачать На грани / The Edge (1997) BDRip 720p от KORSAR | P, A бесплатно без регистрации

 

Информация
Посетители, находящиеся в группе Гости, не могут оставлять комментарии к данной публикации.
 
 
Скачать На грани / The Edge (1997) BDRip 720p от KORSAR | P, A бесплатно без регистрацииCopyright © 2019 .