Скачать Всё ближе и ближе / Closer and Closer (1996) WEB-DL 1080p от KORSAR | P2 бесплатно без регистрации






Оригинальное название: Closer and Closer
Выпущено: США
Перевод: Профессиональный двухголосый
Продолжительность: 01:32:15
Аудио #2: EAC3, 2 ch, 224 Кбит/сек | Английский, оригинал



Скриншоты
Инфо-файлОбщее
Уникальный идентификатор : 189034605974672629665025643872029304633 (0x8E36BDA63249EE50AA984B0F9CDCE739)
Полное имя : Все.ближе.и.ближе.1996.WEB-DL.1080p.mkv
Формат : Matroska
Версия формата : Version 2
Размер файла : 9,15 Гбайт
Продолжительность : 1 ч. 32 м.
Режим общего битрейта : Переменный
Общий поток : 14,2 Мбит/сек
Дата кодирования : UTC 2018-04-13 12:35:45
Программа кодирования : mkvmerge v5.8.0 ('No Sleep / Pillow') built on Sep 2 2012 15:37:04
Библиотека кодирования : libebml v1.2.3 + libmatroska v1.3.0

Видео
Идентификатор : 1
Формат : AVC
Формат/Информация : Advanced Video Codec
Профиль формата : High@L4
Настройки формата : CABAC / 4 Ref Frames
Параметр CABAC формата : Да
Параметр RefFrames формата : 4 кадра
Идентификатор кодека : V_MPEG4/ISO/AVC
Продолжительность : 1 ч. 32 м.
Вид битрейта : Переменный
Битрейт : 13,5 Мбит/сек
Максимальный битрейт : 15,0 Мбит/сек
Ширина : 1920 пикселей
Высота : 1080 пикселей
Соотношение сторон : 16:9
Режим частоты кадров : Постоянный
Частота кадров : 23,976 (24000/1001) кадра/сек
Цветовое пространство : YUV
Субдискретизация насыщенности : 4:2:0
Битовая глубина : 8 бит
Тип развёртки : Прогрессивная
Бит/(Пиксели*Кадры) : 0.272
Размер потока : 8,70 Гбайт (95%)
Язык : English
Default : Да
Forced : Нет
Цветовой диапазон : Limited
Основные цвета : BT.709
Характеристики трансфера : BT.709
Коэффициенты матрицы : BT.709

Аудио #1
Идентификатор : 2
Формат : AC-3
Формат/Информация : Audio Coding 3
Идентификатор кодека : A_AC3
Продолжительность : 1 ч. 32 м.
Вид битрейта : Постоянный
Битрейт : 192 Кбит/сек
Каналы : 2 канала
Расположение каналов : Front: L R
Частота : 48,0 КГц
Частота кадров : 31,250 кадров/сек (1536 SPF)
Битовая глубина : 16 бит
Метод сжатия : С потерями
Размер потока : 127 Мбайт (1%)
Заголовок : DVO | И.Р.А. "NFQ"
Язык : Russian
По умолчанию : Да
Принудительно : Нет

Аудио #2
Идентификатор : 3
Формат : E-AC-3
Формат/Информация : Enhanced Audio Coding 3
Идентификатор кодека : A_EAC3
Продолжительность : 1 ч. 32 м.
Вид битрейта : Постоянный
Битрейт : 224 Кбит/сек
Каналы : 2 канала
Расположение каналов : Front: L R
Частота : 48,0 КГц
Частота кадров : 187,500 кадров/сек (256 SPF)
Метод сжатия : С потерями
Размер потока : 148 Мбайт (2%)
Заголовок : Original
Язык : English
По умолчанию : Нет
Принудительно : Нет

Текст #1
Идентификатор : 4
Формат : UTF-8
Идентификатор кодека : S_TEXT/UTF8
Идентификатор кодека/Информация : UTF-8 Plain Text
Язык : English
По умолчанию : Нет
Принудительно : Нет

Текст #2
Идентификатор : 5
Формат : UTF-8
Идентификатор кодека : S_TEXT/UTF8
Идентификатор кодека/Информация : UTF-8 Plain Text
Заголовок : SDH
Язык : English
По умолчанию : Нет
Принудительно : Нет
Дополнительная информация• Исходник видео WEB-DL Amazon.
Качество: WEB-DL 1080p
Название: Всё ближе и ближе
Аудио #1: AC3, 2 ch, 192 Кбит/сек | Русский, профессиональный (двухголосый закадровый) озвучен по заказу ИРА "NFQ"
Режиссер: Фред Гербер
Жанр: Триллер, детектив
О фильме:
Бывшая журналистка, освещавшая серийные убийства, написала роман «Горгулья» о маньяке и готовит к печати продолжение. И вот кто-то совершает убийства, копируя их из книги, чтобы настроить общественное мнение против автора. Героиня прикована к инвалидному креслу в результате встречи с предыдущим имитатором, что не мешает ей возобновить оборвавшийся три года назад роман с агентом ФБР и разоблачить убийцу

В ролях: Ким Дилэйни, Скотт Крафт, Энтони Шервуд, Питер Аутербридж, Питер МакНейлл, Генри Алессандрони, Джим Кодрингтон, Владимир Джон Кабрт, Шэрон Данн, Найджел Хамер, Шэрон Хелдт, Сьюзэн Хоган, Гэри Кроуфорд

Сборка: ЗалилГод выпуска: 1996
MZMA407 ОценкаНикто ещё не поставил оценку КатегорияЗарубежные фильмы Раздают2 Качают0 Сидер замечен10-06-2019 17:19:12 (4 минуты назад) Добавлен13-04-2018 17:29:20 (14 месяца назад) Размер9.15 GB (9825167249 Bytes)Видео: MPEG-4 AVC, 13,5 Мбит/сек, 1920x1080, 23,976 кадра/сек
Субтитры: Английские

Если у вас возникли проблемы с закачкой Всё ближе и ближе / Closer and Closer (1996) WEB-DL 1080p от KORSAR | P2, перейдите по ссылке - там вы найдете решение своей проблемы.

Категория: Зарубежные фильмы

 

Скачать Всё ближе и ближе / Closer and Closer (1996) WEB-DL 1080p от KORSAR | P2 бесплатно без регистрации

 

Информация
Посетители, находящиеся в группе Гости, не могут оставлять комментарии к данной публикации.
 
 
Скачать Всё ближе и ближе / Closer and Closer (1996) WEB-DL 1080p от KORSAR | P2 бесплатно без регистрацииCopyright © 2019 .