Скачать Ёлки Последние (2018) WEB-DLRip от GeneralFilm | iTunes бесплатно без регистрации






Информация о фильме
В ролях: Иван Ургант, Сергей Светлаков, Дмитрий Нагиев, Елена Яковлева, Юлия Александрова, Даниил Вахрушев, Александр Головин, Александр Домогаров мл., Юрий Кузнецов, Марк Богатырёв

Перевод: Не требуется
vsobbol ОценкаНикто ещё не поставил оценку КатегорияНаши фильмы Раздают34 Качают0 Сидер замечен10-06-2019 17:19:12 (4 минуты назад) Добавлен24-01-2019 18:31:50 (5 месяцев назад) Размер746.61 MB (782878720 Bytes)Релиз от: ЗалилКачество: WEB-DLRip
О фильме: «Ёлки Последние» станут самыми трогательными, добрыми и волшебными из всех, потому что любимые герои будут прощаться со зрителями. В киноальманах войдет пять новогодних историй...



Год выпуска: 2018
Режиссер: Тимур Бекмамбетов, Егор Баранов, Анна Пармас
Видео: XviD build 73, 720x304 (2.37:1), 24.000 fps, 943 Kbps (~ 0.180 bit/pixel)
Аудио: 48.0 kHz, MP3, 2/0 ch, 128 kbps
Продолжительность: 01:36:36
Оригинальное название: Ёлки Последние
Жанр: Комедия
Cубтитры: нет

Скриншоты

MediaInfo
General
Complete name : D:RazdachiElki.Poslednje.2018.WEB-DLRip.GeneralFilm.avi
Format : AVI
Format/Info : Audio Video Interleave
File size : 747 MiB
Duration : 1 h 36 min
Overall bit rate : 1 080 kb/s
Writing application : VirtualDubMod 1.5.10.3 | www.virtualdub-fr.org || (build 2550/release)
Writing library : VirtualDubMod build 2550/release

Video
ID : 0
Format : MPEG-4 Visual
Format profile : Advanced Simple@L5
Format settings : BVOP1 / Custom Matrix
Format settings, BVOP : 1
Format settings, QPel : No
Format settings, GMC : No warppoints
Format settings, Matrix : Custom
Codec ID : XVID
Codec ID/Hint : XviD
Duration : 1 h 36 min
Bit rate : 943 kb/s
Width : 720 pixels
Height : 304 pixels
Display aspect ratio : 2.35:1
Frame rate : 24.000 FPS
Color space : YUV
Chroma subsampling : 4:2:0
Bit depth : 8 bits
Scan type : Progressive
Compression mode : Lossy
Bits/(Pixel*Frame) : 0.180
Stream size : 652 MiB (87%)
Writing library : XviD 73

Audio
ID : 1
Format : MPEG Audio
Format version : Version 1
Format profile : Layer 3
Codec ID : 55
Codec ID/Hint : MP3
Duration : 1 h 36 min
Bit rate mode : Constant
Bit rate : 128 kb/s
Channel(s) : 2 channels
Sampling rate : 48.0 kHz
Frame rate : 41.667 FPS (1152 SPF)
Compression mode : Lossy
Stream size : 88.4 MiB (12%)
Alignment : Aligned on interleaves
Interleave, duration : 42 ms (1.00 video frame)
Interleave, preload duratio : 504 ms
Writing library : LAME3.99r
Encoding settings : -m s -V 4 -q 2 -lowpass 17 -b 128

Выпущено: Россия, «Базелевс», «ЮТБ», при поддержке Фонд Кино и Сбербанка

Если у вас возникли проблемы с закачкой Ёлки Последние (2018) WEB-DLRip от GeneralFilm | iTunes, перейдите по ссылке - там вы найдете решение своей проблемы.

Категория: Наши фильмы

 

Скачать Ёлки Последние (2018) WEB-DLRip от GeneralFilm | iTunes бесплатно без регистрации

 

Информация
Посетители, находящиеся в группе Гости, не могут оставлять комментарии к данной публикации.
 
 
Скачать Ёлки Последние (2018) WEB-DLRip от GeneralFilm | iTunes бесплатно без регистрацииCopyright © 2019 .