Скачать Жареные зелёные помидоры / Fried Green Tomatoes (1991) BDRip-AVC by msltel бесплатно без регистрации






Аудио 1: русский, AC3, 192 kbps, 2 ch, 48 kHz [профессиональный многоголосый, R5]
Золотой глобус, 1992 год
Номинации (3):
Лучший фильм (комедия или мюзикл)
Лучшая женская роль (комедия или мюзикл) (Кэти Бейтс)
Лучшая женская роль второго плана (Джессика Тэнди)
Инфо-файлОбщее
Уникальный идентификатор : 238320250463269427297514640086236427347 (0xB34ACF88350E2EB08AD275E254307453)
Полное имя : D:VideoЖареные зелёные помидоры.1991.BDRip.AVC.mkv
Формат : Matroska
Версия формата : Version 4 / Version 2
Размер файла : 3,25 Гбайт
Продолжительность : 2 ч. 10 м.
Общий поток : 3569 Кбит/сек
Название фильма : BDRip -- STarankov
Дата кодирования : UTC 2015-09-05 02:03:17
Программа кодирования : mkvmerge v8.2.0 ('World of Adventure') 64bit
Библиотека кодирования : libebml v1.3.1 + libmatroska v1.4.2
DURATION : 02:04:56.571000000
NUMBER_OF_FRAMES : 1608
NUMBER_OF_BYTES : 98874
_STATISTICS_WRITING_APP : mkvmerge v8.2.0 ('World of Adventure') 64bit
_STATISTICS_WRITING_DATE_UTC : 2015-09-05 02:03:17
_STATISTICS_TAGS : BPS DURATION NUMBER_OF_FRAMES NUMBER_OF_BYTES

Видео
Идентификатор : 1
Формат : AVC
Формат/Информация : Advanced Video Codec
Профиль формата : High@L4.1
Параметр CABAC формата : Да
Параметр ReFrames формата : 9 кадров
Идентификатор кодека : V_MPEG4/ISO/AVC
Продолжительность : 2 ч. 10 м.
Битрейт : 2666 Кбит/сек
Ширина : 1024 пикселя
Высота : 554 пикселя
Соотношение сторон : 1,85:1
Режим частоты кадров : Постоянный
Частота кадров : 23,976 кадра/сек
Цветовое пространство : YUV
Субдискретизация насыщенности : 4:2:0
Битовая глубина : 8 бит
Тип развёртки : Прогрессивная
Бит/(Пиксели*Кадры) : 0.196
Размер потока : 2,43 Гбайт (75%)
Библиотека кодирования : x264 core 146 r2538 121396c
Настройки программы : cabac=1 / ref=9 / deblock=1:-3:-3 / analyse=0x3:0x113 / me=umh / subme=10 / psy=1 / psy_rd=1.00:0.15 / mixed_ref=1 / me_range=32 / chroma_me=1 / trellis=2 / 8x8dct=1 / cqm=0 / deadzone=21,11 / fast_pskip=1 / chroma_qp_offset=-3 / threads=6 / lookahead_threads=1 / sliced_threads=0 / nr=0 / decimate=1 / interlaced=0 / bluray_compat=0 / constrained_intra=0 / bframes=12 / b_pyramid=2 / b_adapt=2 / b_bias=0 / direct=1 / weightb=1 / open_gop=0 / weightp=2 / keyint=230 / keyint_min=23 / scenecut=40 / intra_refresh=0 / rc_lookahead=40 / rc=crf / mbtree=0 / crf=20.8 / qcomp=0.60 / qpmin=0 / qpmax=69 / qpstep=4 / vbv_maxrate=40000 / vbv_bufsize=50000 / crf_max=0.0 / nal_hrd=none / filler=0 / ip_ratio=1.40 / pb_ratio=1.30 / aq=1:1.00
Язык : English
Default : Да
Forced : Нет
DURATION : 02:10:12.847000000
NUMBER_OF_FRAMES : 187321
NUMBER_OF_BYTES : 2670954391
_STATISTICS_WRITING_APP : mkvmerge v8.2.0 ('World of Adventure') 64bit
_STATISTICS_WRITING_DATE_UTC : 2015-09-05 02:03:17
_STATISTICS_TAGS : BPS DURATION NUMBER_OF_FRAMES NUMBER_OF_BYTES

Аудио #1
Идентификатор : 2
Формат : AC-3
Формат/Информация : Audio Coding 3
Расширение режима : CM (complete main)
Параметр Endianness формата : Big
Идентификатор кодека : A_AC3
Продолжительность : 2 ч. 10 м.
Вид битрейта : Постоянный
Битрейт : 192 Кбит/сек
Каналы : 2 канала
Расположение каналов : Front: L R
Частота : 48,0 КГц
Метод сжатия : С потерями
Размер потока : 179 Мбайт (5%)
Заголовок : MVO (R5)
Язык : Russian
Default : Да
Forced : Нет

Аудио #2
Идентификатор : 3
Формат : AC-3
Формат/Информация : Audio Coding 3
Расширение режима : CM (complete main)
Параметр Endianness формата : Big
Идентификатор кодека : A_AC3
Продолжительность : 2 ч. 10 м.
Вид битрейта : Постоянный
Битрейт : 192 Кбит/сек
Каналы : 2 канала
Расположение каналов : Front: L R
Частота : 48,0 КГц
Метод сжатия : С потерями
Размер потока : 179 Мбайт (5%)
Заголовок : AVO (Павел Прямостанов)
Язык : Russian
Default : Нет
Forced : Нет

Аудио #3
Идентификатор : 4
Формат : AC-3
Формат/Информация : Audio Coding 3
Расширение режима : CM (complete main)
Параметр Endianness формата : Big
Идентификатор кодека : A_AC3
Продолжительность : 2 ч. 10 м.
Вид битрейта : Постоянный
Битрейт : 448 Кбит/сек
Каналы : 6 каналов
Расположение каналов : Front: L C R, Side: L R, LFE
Частота : 48,0 КГц
Метод сжатия : С потерями
Размер потока : 417 Мбайт (13%)
Заголовок : Original
Язык : English
Default : Нет
Forced : Нет

Текст
Идентификатор : 5
Формат : UTF-8
Идентификатор кодека : S_TEXT/UTF8
Идентификатор кодека/Информация : UTF-8 Plain Text
Заголовок : русский
Язык : Russian
Default : Нет
Forced : Нет


Скриншоты

ЗалилСубтитры: русские

НаградыРежиссёр: Джон Эвнет

Описание: Толстуха Эвелин Кауч приходит в больницу навещать тётку своего мужа, которая её терпеть не может, и знакомится с милой старушкой, занимающей её рассказами о жизни двух подруг Иджи и Рут. Они вместе держали кафе «Уисл Стоп», где фирменным блюдом были жареные зелёные помидоры.
Фильм по роману американской писательницы Флэгг Фэнни "Жареные зелёные помидоры в кафе "Полустанок", повествующему о дружбе женщин, живших в первой половине двадцатого столетия и в наше время. Тонко проникая в психологию героев, автор неожиданным образом переплетает их судьбы, полные драматических событий и житейских забот, любви и ненависти, побед и поражений.



Название: Жареные зелёные помидоры
Видео: MPEG-4 AVC, 2666 Кбит/с, 1024x554, 23,976 кадра/с
Оригинальное название: Fried Green Tomatoes
Качество: BDRip AVCПродолжительность: 02:10:13
msltel ОценкаНикто ещё не поставил оценку КатегорияЗарубежные фильмы Раздают1 Качают0 Сидер замечен10-06-2019 16:19:13 (4 минуты назад) Добавлен06-09-2015 13:57:45 (46 месяцев назад) Размер3.25 GB (3485861747 Bytes)Аудио 2: русский, AC3, 192 kbps, 2 ch, 48 kHz [авторский, Павел Прямостанов]
Год выпуска: 1991
Перевод: профессиональный многоголосый, авторский

Аудио 3: английский, AC3, 448 kbps, 6 ch, 48 kHz [оригинал]
Оскар, 1992 год
Номинации (2):
Лучшая женская роль второго плана (Джессика Тэнди)
Лучший адаптированный сценарий

Жанр: драма
Сравнение с исходником
В ролях: Кэти Бэйтс, Мэри Стюарт Мастерсон, Мэри-Луиз Паркер, Джессика Тэнди, Сисели Тайсон, Крис ОДоннелл, Стэн Шоу, Гейлард Сартейн, Тим Скотт, Гэри Басараба, Лоис Смит, Джо Харви Аллен, Макон МакКалман, Ричард Рили, Рейнор Шайни, Грэйс Забриски, Эфтон Смит, Дэнни Нельсон, Рейд Биньон

Формат: MKV
Британская академия, 1993 год
Номинации (2):
Лучшая женская роль (Джессика Тэнди)
Лучшая женская роль второго плана (Кэти Бейтс)

Страна: США

Если у вас возникли проблемы с закачкой Жареные зелёные помидоры / Fried Green Tomatoes (1991) BDRip-AVC by msltel, перейдите по ссылке - там вы найдете решение своей проблемы.

Категория: Зарубежные фильмы

 

Скачать Жареные зелёные помидоры / Fried Green Tomatoes (1991) BDRip-AVC by msltel бесплатно без регистрации

 

Информация
Посетители, находящиеся в группе Гости, не могут оставлять комментарии к данной публикации.
 
 
Скачать Жареные зелёные помидоры / Fried Green Tomatoes (1991) BDRip-AVC by msltel бесплатно без регистрацииCopyright © 2019 .