Скачать Восстание / Revolt (2017) BDRip-AVC от OlLanDGroup | iTunes бесплатно без регистрации






Качество: BDRip-AVC |Аудио: 48 kHz, AC3 Dolby Digital, 3/2 (L,C,R,l,r) + LFE ch, ~448.00 kbps avg | ENG

Дата премьеры (мир): 1 июля 2017


Аудио кодек: AC3
Страна: Великобритания, ЮАР
Жанр: Фантастика, боевик, приключения

Продолжительность: 01:27:16

Восстание / Revolt
«To live is to fight»


Реклама: Отсутствует

В ролях: Ли Пейс, Беренис Марло, Эми Луиз Уилсон, Алан Сантини, Том Фэйрфут, Кеннет Фок, Эдвин Джей, Карл Роддам

Релиз от: Формат: MKV
BluRay Disc | Revolt 2017 BluRay 1080p AVC DTS-HD MA5.1-MTeam
Описание: Американский спецназовец был в Африке, когда Землю атаковали высокотехнологичные пришельцы. Столкнувшись с захватчиками, наш герой потерял сознание, а когда очнулся запертым в заброшенном полицейском участке, то понял, что лишился ещё и памяти. В соседней камере обнаружилась врач местной больницы Надя, а огромные наэлектризованные инопланетные роботы-убийцы — не самое страшное, с чем придётся столкнуться двум белым людям в Африке.



Год выпуска: 2017
Цифровой релиз: 27 июля 2018, «Централ Партнершип»
iTunes
Аудио: 48 kHz, AC3 Dolby Digital, 3/2 (L,C,R,l,r) + LFE ch, ~384.00 kbps avg | RUS (iTunes)
Rip by:



MediaInfo
Общее
Уникальный идентификатор : 109721772459652693467127639359965153038 (0x528BA50BEB6B6FDEF38F9B7D5CA0C70E)
Полное имя : F:OlLanDGroupRevolt.2017.BDRip(AVC).OlLanDGroup.mkv
Формат : Matroska
Версия формата : Version 4 / Version 2
Размер файла : 1,88 Гбайт
Продолжительность : 1 ч. 27 м.
Общий поток : 3087 Кбит/сек
Название фильма : Revolt.2017 #TorpedoUK#
Дата кодирования : UTC 2018-07-26 20:53:11
Программа кодирования : mkvmerge v25.0.0 ('Prog Noir') 64-bit
Библиотека кодирования : libebml v1.3.6 + libmatroska v1.4.9

Видео
Идентификатор : 1
Формат : AVC
Формат/Информация : Advanced Video Codec
Профиль формата : High@L4.1
Параметр CABAC формата : Да
Параметр ReFrames формата : 10 кадров
Идентификатор кодека : V_MPEG4/ISO/AVC
Продолжительность : 1 ч. 27 м.
Битрейт : 2253 Кбит/сек
Ширина : 1024 пикселя
Высота : 428 пикселей
Соотношение сторон : 2,40:1
Режим частоты кадров : Постоянный
Частота кадров : 23,976 (24000/1001) кадра/сек
Цветовое пространство : YUV
Субдискретизация насыщенности : 4:2:0
Битовая глубина : 8 бит
Тип развёртки : Прогрессивная
Бит/(Пиксели*Кадры) : 0.214
Размер потока : 1,37 Гбайт (73%)
Библиотека кодирования : x264 core 146 r2538 121396c
Настройки программы : cabac=1 / ref=10 / deblock=1:-3:-3 / analyse=0x3:0x113 / me=umh / subme=11 / psy=1 / psy_rd=1.00:0.03 / mixed_ref=1 / me_range=48 / chroma_me=1 / trellis=2 / 8x8dct=1 / cqm=0 / deadzone=21,11 / fast_pskip=1 / chroma_qp_offset=-3 / threads=6 / lookahead_threads=1 / sliced_threads=0 / nr=0 / decimate=1 / interlaced=0 / bluray_compat=0 / constrained_intra=0 / bframes=10 / b_pyramid=2 / b_adapt=2 / b_bias=0 / direct=3 / weightb=1 / open_gop=0 / weightp=2 / keyint=240 / keyint_min=23 / scenecut=40 / intra_refresh=0 / rc_lookahead=40 / rc=2pass / mbtree=1 / bitrate=2253 / ratetol=1.0 / qcomp=0.60 / qpmin=0 / qpmax=69 / qpstep=4 / cplxblur=20.0 / qblur=0.5 / vbv_maxrate=50000 / vbv_bufsize=62500 / nal_hrd=none / filler=0 / ip_ratio=1.40 / aq=1:1.00
Язык : English
Default : Да
Forced : Нет

Аудио #1
Идентификатор : 2
Формат : AC-3
Формат/Информация : Audio Coding 3
Расширение режима : CM (complete main)
Параметр Endianness формата : Big
Идентификатор кодека : A_AC3
Продолжительность : 1 ч. 27 м.
Вид битрейта : Постоянный
Битрейт : 384 Кбит/сек
Каналы : 6 каналов
Расположение каналов : Front: L C R, Side: L R, LFE
Частота : 48,0 КГц
Частота кадров : 31,250 кадров/сек (1536 spf)
Битовая глубина : 16 бит
Метод сжатия : С потерями
Размер потока : 240 Мбайт (12%)
Заголовок : iTunes
Язык : Russian
Default : Да
Forced : Нет

Аудио #2
Идентификатор : 3
Формат : AC-3
Формат/Информация : Audio Coding 3
Расширение режима : CM (complete main)
Параметр Endianness формата : Big
Идентификатор кодека : A_AC3
Продолжительность : 1 ч. 27 м.
Вид битрейта : Постоянный
Битрейт : 448 Кбит/сек
Каналы : 6 каналов
Расположение каналов : Front: L C R, Side: L R, LFE
Частота : 48,0 КГц
Частота кадров : 31,250 кадров/сек (1536 spf)
Битовая глубина : 16 бит
Метод сжатия : С потерями
Размер потока : 280 Мбайт (15%)
Заголовок : Original
Язык : English
Default : Нет
Forced : Нет

Текст #1
Идентификатор : 4
Формат : UTF-8
Идентификатор кодека : S_TEXT/UTF8
Идентификатор кодека/Информация : UTF-8 Plain Text
Продолжительность : 1 ч. 21 м.
Битрейт : 53 бит/сек
Count of elements : 590
Размер потока : 32,2 Кбайт (0%)
Заголовок : Full
Язык : Russian
Default : Нет
Forced : Нет

Текст #2
Идентификатор : 5
Формат : UTF-8
Идентификатор кодека : S_TEXT/UTF8
Идентификатор кодека/Информация : UTF-8 Plain Text
Продолжительность : 1 ч. 22 м.
Битрейт : 31 бит/сек
Count of elements : 575
Размер потока : 18,9 Кбайт (0%)
Заголовок : Full
Язык : English
Default : Нет
Forced : Нет

Меню
00:00:00.000 : en:Chapter 1
00:11:27.728 : en:Chapter 2
00:17:25.919 : en:Chapter 3
00:23:08.845 : en:Chapter 4
00:28:13.316 : en:Chapter 5
00:35:12.693 : en:Chapter 6
00:43:15.676 : en:Chapter 7
00:52:20.679 : en:Chapter 8
00:59:06.000 : en:Chapter 9
01:06:07.171 : en:Chapter 10
01:14:04.356 : en:Chapter 11
01:22:54.594 : en:Chapter 12

Скриншоты


ЗалилПроизводство: 42, MacDuff, POW Movie, Tea Shop & Film Company
Режиссёр: Джо Миэйл
TorpedoUK ОценкаНикто ещё не поставил оценку КатегорияЗарубежные фильмы Раздают5 Качают0 Сидер замечен10-06-2019 15:19:11 (4 минуты назад) Добавлен26-07-2018 23:54:51 (11 месяц назад) Размер1.88 GB (2020330101 Bytes)Видео кодек: MPEG-4 AVC
Видео: 1024x428 (2.40:1), 23,976 fps, x264 ~2 253 kbps avg, 0.214 bit/pixel
Перевод: Дублированный |Субтитры: Русские (полные), Английские (полные)

Если у вас возникли проблемы с закачкой Восстание / Revolt (2017) BDRip-AVC от OlLanDGroup | iTunes, перейдите по ссылке - там вы найдете решение своей проблемы.

Категория: Зарубежные фильмы

 

Скачать Восстание / Revolt (2017) BDRip-AVC от OlLanDGroup | iTunes бесплатно без регистрации

 

Информация
Посетители, находящиеся в группе Гости, не могут оставлять комментарии к данной публикации.
 
 
Скачать Восстание / Revolt (2017) BDRip-AVC от OlLanDGroup | iTunes бесплатно без регистрацииCopyright © 2019 .