Скачать Джеймс Бонд. Агент 007: Вид на убийство / James Bond: A View to a Kill (1985) BDRip | D бесплатно без регистрации






Информация о фильме
Год выхода: 1985
Кодек: Xvid
Название: Вид на убийство
Продолжительность: 02:11:18
Режиссер: Джон Глен
В ролях: Роджер Мур, Кристофер Уокен, Таня Робертс, Грейс Джонс, Патрик Макни, Патрик Бошо, Дэвид Ип, Фиона Фуллертон, Мэннинг Редвуд, Элисон Дуди

Видео: 720x304 (2.37:1), 23.976 fps, XviD build 73 ~1386 kbps avg, 0.26 bit/pixel
Звук: 48 kHz, AC3 Dolby Digital, 2/0 (L,R) ch, ~192.00 kbps avg

Скриншоты
MediaInfoОбщее
Полное имя : D:�07_Vid_na_ubiystvo_1985_BDRip_by_Dalemake.avi
Формат : AVI
Формат/Информация : Audio Video Interleave
Размер файла : 1,46 Гбайт
Продолжительность : 2 ч. 11 м.
Общий поток : 1588 Кбит/сек
Программа кодирования : VirtualDubMod 1.5.10.3 | www.virtualdub-fr.org || (build 2550/release)
Библиотека кодирования : VirtualDubMod build 2550/release

Видео
Идентификатор : 0
Формат : MPEG-4 Visual
Профиль формата : Advanced Simple@L5
Параметр BVOP формата : 1
Параметр QPel формата : Нет
Параметр GMC формата : Без точки перехода
Параметр матрицы формата : Выборочная
Идентификатор кодека : XVID
Идентификатор кодека/Подсказка : XviD
Продолжительность : 2 ч. 11 м.
Битрейт : 1324 Кбит/сек
Ширина : 720 пикселей
Высота : 304 пикселя
Соотношение сторон : 2,35:1
Частота кадров : 23,976 кадра/сек
Цветовое пространство : YUV
Субдискретизация насыщенности : 4:2:0
Битовая глубина : 8 бит
Тип развёртки : Прогрессивная
Метод сжатия : С потерями
Бит/(Пиксели*Кадры) : 0.252
Размер потока : 1,21 Гбайт (83%)
Библиотека кодирования : XviD 73

Аудио
Идентификатор : 1
Формат : AC-3
Формат/Информация : Audio Coding 3
Расширение режима : CM (complete main)
Параметр Endianness формата : Big
Идентификатор кодека : 2000
Продолжительность : 2 ч. 11 м.
Вид битрейта : Постоянный
Битрейт : 192 Кбит/сек
Каналы : 2 канала
Расположение каналов : Front: L R
Частота : 48,0 КГц
Битовая глубина : 16 бит
Метод сжатия : С потерями
Размер потока : 180 Мбайт (12%)
Выравнивание : Разделение по промежуткам ОценкаНикто ещё не поставил оценку КатегорияЗарубежные фильмы Раздают0 Качают0 Сидер замечен09-06-2019 23:19:12 (16 часов назад) Добавлен09-03-2015 3:19:01 (52 месяца назад) Размер1.46 GB (1563688960 Bytes)Оригинальное название: A View to a Kill
Качество: BDRip
О фильме: На этот раз агент 007 сражается сразу с двумя негодяями, одного из них зовут Макс Зорин, он-продукт генетических испытаний нацистов, у него есть помощница по имени Мэй-Дэй, она настоящая экстремалка с безудержной тягой к преступлениям.

Макс задумал уничтожить «Силиконовую долину», центр научно-технических исследований США. Чтобы помешать преступникам осуществить их коварные планы, Бонду приходится сначала съездить в СССР, где в условиях крайнего севера его атакуют вооруженные до зубов боевики оснащенные снегоходами, вертолетами и даже лыжами, затем в Париж, а потом в Сан-Франциско, где на всемирно известном мосту «Золотые Ворота» и разворачиваются события, от которых зависит будущее целого государства.



Жанр: Боевик, триллер, криминал, приключения
Страна: Великобритания, США
Перевод: Дублированный

Если у вас возникли проблемы с закачкой Джеймс Бонд. Агент 007: Вид на убийство / James Bond: A View to a Kill (1985) BDRip | D, перейдите по ссылке - там вы найдете решение своей проблемы.

Категория: Зарубежные фильмы

 

Скачать Джеймс Бонд. Агент 007: Вид на убийство / James Bond: A View to a Kill (1985) BDRip | D бесплатно без регистрации

 

Информация
Посетители, находящиеся в группе Гости, не могут оставлять комментарии к данной публикации.
 
 
Скачать Джеймс Бонд. Агент 007: Вид на убийство / James Bond: A View to a Kill (1985) BDRip | D бесплатно без регистрацииCopyright © 2019 .