Скачать Чёрный тюльпан / La Tulipe Noire (1964) BDRip 1080p | D, P бесплатно без регистрации






Информация о фильме
Название: Чёрный тюльпан
Качество: BDRip 1080p
likko Оценка10 из 10 (6 голосов, самая низкая оценка - 10, самая высокая - 10) КатегорияЗарубежные фильмы Раздают1 Качают0 Сидер замечен10-06-2019 14:19:11 (4 минуты назад) Добавлен19-10-2015 18:39:10 (44 месяца назад) Размер10.53 GB (11308599942 Bytes)Оригинальное название: La Tulipe Noire
Советский дубляж
Видео кодек: H264
В ролях:
Ален Делон — Гийом де Сен-Прэ / Жюльен де Сен-Прэ (дублирует Василий Лановой)
Вирна Лизи — Каролина Плантен (дублирует Тамара Сёмина)
Доун Аддамс — маркиза Катрин де Вигонь (дублирует Серафима Холина)
Аким Тамиров — маркиз де Вигонь (дублирует Евгений Весник)
Адольфо Марсильяк — барон Ля Муш (дублирует Всеволод Ларионов)
Робер Мануэль — князь де Гразийяк (дублирует Владимир Кенигсон)

Аудио кодек: AC3
Описание: Накануне Французской революции в тихой провинции жуткий страх наводит на знатных мерзавцев таинственный разбойник в маске, чьим фирменным знаком стал черный тюльпан. Неуловимый мститель находчив, бесстрашен, благороден и умен, он прекрасный наездник и гений фехтования. Дворянин Жульен - беспечный неженка, глупый и трусливый - совсем на него не похож. Но никто не знает, что есть нечто, крепко связывающее этих двоих.

Фильм занимает 20-е место по посещаемости среди зарубежных лент в советском кинопрокате.
Во время повторного выпуска в советский кинопрокат в 1984 году этот фильм посмотрели 28,9 млн. зрителей при тираже 820 копий.
Общая аудитория за два выпуска в прокат СССР составила 76,7 млн. человек.




Аудио #03: Французский: Dolby AC3, 48000 Hz, 2ch, 640 kbps
Режиссер: Кристиан-Жак

Продолжительность: 01:53:30

Перевод: Профессиональный (полное дублирование)Перевод: Профессиональный (многоголосый закадровый)
Аудио #01: Русский: Dolby AC3, 48000 Hz, 2ch, 192 kbps - Дубляж
Видео: MPEG4 Video (H264), 1920x848, 24.000fps, 12.0 Mbps
Формат: MKV
Сэмпл

MediaInfo: General
Unique ID : 190431397259482710674134275826129108706 (0x8F43C0C6CB3BDD40A722DFF04560FEE2)
Complete name : F:Torrent 21964.La.Tulipe.Noire.renta23.mkv
Format : Matroska
Format version : Version 4 / Version 2
File size : 10.5 GiB
Duration : 1h 53mn
Overall bit rate : 13.3 Mbps
Movie name : 1964 Чёрный тюльпан / renta23
Encoded date : UTC 2015-10-19 15:04:47
Writing application : mkvmerge v8.3.0 ('Over the Horizon') 32bit
Writing library : libebml v1.3.1 + libmatroska v1.4.2
DURATION : 01:52:49.958000000
NUMBER_OF_FRAMES : 1155
NUMBER_OF_BYTES : 83235
_STATISTICS_WRITING_APP : mkvmerge v8.3.0 ('Over the Horizon') 32bit
_STATISTICS_WRITING_DATE_UTC : 2015-10-19 15:04:47
_STATISTICS_TAGS : BPS DURATION NUMBER_OF_FRAMES NUMBER_OF_BYTES

Video
ID : 1
Format : AVC
Format/Info : Advanced Video Codec
Format profile : High@L4.1
Format settings, CABAC : Yes
Format settings, ReFrames : 4 frames
Codec ID : V_MPEG4/ISO/AVC
Duration : 1h 53mn
Bit rate : 12.0 Mbps
Width : 1 920 pixels
Height : 848 pixels
Display aspect ratio : 2.25:1
Frame rate mode : Constant
Frame rate : 24.000 fps
Color space : YUV
Chroma subsampling : 4:2:0
Bit depth : 8 bits
Scan type : Progressive
Bits/(Pixel*Frame) : 0.307
Stream size : 9.31 GiB (88%)
Title : 1964 Чёрный тюльпан
Writing library : x264 core 146 r2538 121396c
Encoding settings : cabac=1 / ref=4 / deblock=1:-1:-1 / analyse=0x3:0x133 / me=umh / subme=11 / psy=1 / psy_rd=1.15:0.00 / mixed_ref=1 / me_range=32 / chroma_me=1 / trellis=2 / 8x8dct=1 / cqm=0 / deadzone=21,11 / fast_pskip=0 / chroma_qp_offset=-2 / threads=12 / lookahead_threads=3 / sliced_threads=0 / nr=0 / decimate=1 / interlaced=0 / bluray_compat=0 / constrained_intra=0 / bframes=12 / b_pyramid=2 / b_adapt=2 / b_bias=0 / direct=3 / weightb=1 / open_gop=0 / weightp=2 / keyint=250 / keyint_min=23 / scenecut=40 / intra_refresh=0 / rc_lookahead=50 / rc=2pass / mbtree=1 / bitrate=12000 / ratetol=1.0 / qcomp=0.60 / qpmin=0 / qpmax=69 / qpstep=4 / cplxblur=20.0 / qblur=0.5 / vbv_maxrate=50000 / vbv_bufsize=62500 / nal_hrd=none / filler=0 / ip_ratio=1.40 / aq=1:1.00
Language : German
Default : Yes
Forced : No

Audio #1
ID : 2
Format : AC-3
Format/Info : Audio Coding 3
Mode extension : CM (complete main)
Format settings, Endianness : Big
Codec ID : A_AC3
Duration : 1h 53mn
Bit rate mode : Constant
Bit rate : 192 Kbps
Channel(s) : 2 channels
Channel positions : Front: L R
Sampling rate : 48.0 KHz
Compression mode : Lossy
Stream size : 156 MiB (1%)
Title : Дубляж
Language : Russian
Default : Yes
Forced : No

Audio #2
ID : 3
Format : AC-3
Format/Info : Audio Coding 3
Mode extension : CM (complete main)
Format settings, Endianness : Big
Codec ID : A_AC3
Duration : 1h 53mn
Bit rate mode : Constant
Bit rate : 448 Kbps
Channel(s) : 6 channels
Channel positions : Front: L C R, Side: L R, LFE
Sampling rate : 48.0 KHz
Compression mode : Lossy
Stream size : 364 MiB (3%)
Title : Многоголосый, R5
Language : Russian
Default : No
Forced : No

Audio #3
ID : 4
Format : AC-3
Format/Info : Audio Coding 3
Mode extension : CM (complete main)
Format settings, Endianness : Big
Codec ID : A_AC3
Duration : 1h 53mn
Bit rate mode : Constant
Bit rate : 640 Kbps
Channel(s) : 2 channels
Channel positions : Front: L R
Sampling rate : 48.0 KHz
Compression mode : Lossy
Stream size : 520 MiB (5%)
Language : French
Default : No
Forced : No

Text
ID : 5
Format : UTF-8
Codec ID : S_TEXT/UTF8
Codec ID/Info : UTF-8 Plain Text
Language : Russian
Default : No
Forced : No

Menu
00:00:00.000 : en:Chapter 01
00:04:37.083 : en:Chapter 02
00:11:17.916 : en:Chapter 03
00:23:11.416 : en:Chapter 04
00:27:25.000 : en:Chapter 05
00:33:15.333 : en:Chapter 06
00:44:07.166 : en:Chapter 07
00:48:54.541 : en:Chapter 08
00:59:35.000 : en:Chapter 09
01:04:40.791 : en:Chapter 10
01:10:28.291 : en:Chapter 11
01:18:22.125 : en:Chapter 12
01:23:20.208 : en:Chapter 13
01:33:12.833 : en:Chapter 14
01:41:40.333 : en:Chapter 15
01:46:42.875 : en:Chapter 16




ЗалилЖанр: Комедия, приключения
Аудио #02: Русский: Dolby AC3, 48000 Hz, 6ch, 448 kbps - Многоголосый, R5
Формат субтитров: Softsub (SRT)

Год выпуска: 1964
Субтитры: Русские

Страна: Франция, Италия, Испания

Если у вас возникли проблемы с закачкой Чёрный тюльпан / La Tulipe Noire (1964) BDRip 1080p | D, P, перейдите по ссылке - там вы найдете решение своей проблемы.

Категория: Зарубежные фильмы

 

Скачать Чёрный тюльпан / La Tulipe Noire (1964) BDRip 1080p | D, P бесплатно без регистрации

 

Информация
Посетители, находящиеся в группе Гости, не могут оставлять комментарии к данной публикации.
 
 
Скачать Чёрный тюльпан / La Tulipe Noire (1964) BDRip 1080p | D, P бесплатно без регистрацииCopyright © 2019 .