Скачать Драгоценная женщина / A Special Lady / Miok (2017) WEB-DLRip-AVC от Batafurai Team | L2 бесплатно без регистрации






Релиз группы:

Описание: Раньше Хё Чжон была проституткой, но с годами она стала правой рукой главаря влиятельной банды и известной в криминальных кругах личностью. Многие её уважают, боятся и хотят убить. Поэтому никому не известно, что у неё есть слабость. Это её сын, которого Хё Чжон родила очень давно, но в силу обстоятельств, беспокоясь за жизнь ребенка, не смогла его растить. Каким-то образом врагам Хё Чжон удаётся выяснить о существовании мальчика, и он становится их мишенью. Хё Чжон пытается спасти жизнь сына, который даже не подозревает о её существовании.

Режиссер: Чон Со Кён / Jung Seo Kyoung

Доп. информация:

Формат субтитров: [полные]softsub (ass)

Скриншоты



отчет MediaInfo
Формат : Matroska
Версия формата : Version 4
Размер файла : 1,48 Гбайт
Продолжительность : 1 ч. 30 м.
Общий поток : 2330 Кбит/сек
Дата кодирования : UTC 2019-01-21 17:48:28
Программа кодирования : mkvmerge v8.2.0 ('World of Adventure') 32bit
Библиотека кодирования : libebml v1.3.1 + libmatroska v1.4.2

Видео
Идентификатор : 1
Формат : AVC
Формат/Информация : Advanced Video Codec
Профиль формата : High@L4.1
Настройки формата : CABAC / 10 Ref Frames
Параметр CABAC формата : Да
Параметр RefFrames формата : 10 кадров
Идентификатор кодека : V_MPEG4/ISO/AVC
Продолжительность : 1 ч. 30 м.
Битрейт : 1944 Кбит/сек
Ширина : 800 пикселей
Высота : 336 пикселей
Соотношение сторон : 2,40:1
Режим частоты кадров : Постоянный
Частота кадров : 23,976 (24000/1001) кадра/сек
Цветовое пространство : YUV
Субдискретизация насыщенности : 4:2:0
Битовая глубина : 8 бит
Тип развёртки : Прогрессивная
Бит/(Пиксели*Кадры) : 0.302
Размер потока : 1,23 Гбайт (83%)
Библиотека кодирования : x264 core 148 r2638 7599210
Настройки программы : cabac=1 / ref=10 / deblock=1:-2:-1 / analyse=0x3:0x133 / me=umh / subme=10 / psy=1 / psy_rd=1.00:0.00 / mixed_ref=1 / me_range=24 / chroma_me=1 / trellis=2 / 8x8dct=1 / cqm=0 / deadzone=21,11 / fast_pskip=0 / chroma_qp_offset=-2 / threads=6 / lookahead_threads=1 / sliced_threads=0 / nr=0 / decimate=0 / interlaced=0 / bluray_compat=0 / constrained_intra=0 / bframes=10 / b_pyramid=2 / b_adapt=2 / b_bias=0 / direct=3 / weightb=1 / open_gop=1 / weightp=2 / keyint=240 / keyint_min=23 / scenecut=40 / intra_refresh=0 / rc_lookahead=60 / rc=2pass / mbtree=0 / bitrate=1944 / ratetol=1.0 / qcomp=0.70 / qpmin=10 / qpmax=51 / qpstep=4 / cplxblur=20.0 / qblur=0.5 / vbv_maxrate=62500 / vbv_bufsize=78125 / nal_hrd=none / filler=0 / ip_ratio=1.40 / pb_ratio=1.30 / aq=1:1.00
Язык : English
Default : Да
Forced : Нет
Цветовой диапазон : Limited
Коэффициенты матрицы : BT.709

Аудио #1
Идентификатор : 2
Формат : AC-3
Формат/Информация : Audio Coding 3
Коммерческое название : Dolby Digital
Идентификатор кодека : A_AC3
Продолжительность : 1 ч. 30 м.
Вид битрейта : Постоянный
Битрейт : 192 Кбит/сек
Каналы : 2 канала
Channel layout : L R
Частота : 48,0 КГц
Частота кадров : 31,250 кадров/сек (1536 SPF)
Битовая глубина : 16 бит
Метод сжатия : С потерями
Размер потока : 125 Мбайт (8%)
Заголовок : Ворон и Kesu
Язык : Russian
Default : Да
Forced : Нет

Аудио #2
Идентификатор : 3
Формат : AC-3
Формат/Информация : Audio Coding 3
Коммерческое название : Dolby Digital
Идентификатор кодека : A_AC3
Продолжительность : 1 ч. 30 м.
Вид битрейта : Постоянный
Битрейт : 192 Кбит/сек
Каналы : 2 канала
Channel layout : L R
Частота : 48,0 КГц
Частота кадров : 31,250 кадров/сек (1536 SPF)
Битовая глубина : 16 бит
Метод сжатия : С потерями
Размер потока : 125 Мбайт (8%)
Заголовок : Original
Язык : Korean
Default : Нет
Forced : Нет

Текст
Идентификатор : 4
Формат : ASS
Идентификатор кодека : S_TEXT/ASS
Идентификатор кодека/Информация : Advanced Sub Station Alpha
Продолжительность : 1 ч. 27 м.
Битрейт : 96 бит/сек
ElementCount : 744
Метод сжатия : Без потерь
Размер потока : 61,6 Кбайт (0%)
Заголовок : RUS FULL
Язык : Russian
Default : Нет
Forced : Нет


Пример Субтитров
Dialogue: 0,0:00:57.12,0:00:59.33,Default,NTP,0,0,0,!Effect,{i1}На сегодня все номера забронированы.{i0}
Dialogue: 0,0:00:59.66,0:01:01.62,Default,NTP,0,0,0,!Effect,{i1}Мы можем забронировать вам номерNв соседнем отеле.{i0}
Dialogue: 0,0:01:45.50,0:01:47.83,Default,NTP,0,0,0,!Effect,Номера готовы.NОни приехали?
Dialogue: 0,0:01:47.83,0:01:50.04,Default,NTP,0,0,0,!Effect,{i1}Да, только что вьехали на парковку{i0}
Dialogue: 0,0:01:50.04,0:01:52.00,Default,NTP,0,0,0,!Effect,{i1}Мистер Ким движется по лестнице.{i0}
Dialogue: 0,0:01:52.00,0:01:53.62,Default,NTP,0,0,0,!Effect,{i1}Президент Ли прибыл.{i0}
Dialogue: 0,0:01:53.62,0:01:55.41,Default,NTP,0,0,0,!Effect,Ким Сам Джин прибыл.
Dialogue: 0,0:01:55.41,0:01:57.37,Default,NTP,0,0,0,!Effect,{i1}Комнаты, со стороны утеса, готовы.{i0}
Dialogue: 0,0:01:59.33,0:02:01.83,Default,NTP,0,0,0,!Effect,{i1}Хорошо.{i0}NЛара.
Dialogue: 0,0:02:03.58,0:02:05.20,Default,NTP,0,0,0,!Effect,Они уже на месте.
Dialogue: 0,0:02:11.04,0:02:13.45,Default,NTP,0,0,0,!Effect,{i1}Представитель Money Gate прибыл{i0}
Dialogue: 0,0:02:21.83,0:02:24.66,Default,NTP,0,0,0,!Effect,{i1}Представитель SH Refrigeration, Нам, прибыл.{i0}
Dialogue: 0,0:02:35.16,0:02:37.83,Default,NTP,0,0,0,!Effect,{i1}Районный прокурор Чон не приехал.{i0}
Dialogue: 0,0:02:37.83,0:02:38.91,Default,NTP,0,0,0,!Effect,{i1}Пожалуйста, проверьте.{i0}
Dialogue: 0,0:02:39.58,0:02:43.87,Default,NTP,0,0,0,!Effect,У мистера Чона не получится приехать вовремя.
Dialogue: 0,0:02:44.12,0:02:46.33,Default,NTP,0,0,0,!Effect,Он занятой человек
Dialogue: 0,0:02:52.45,0:02:55.62,Default,NTP,0,0,0,!Effect,{i1}Все номера, кроме 1309, активны.{i0}
Dialogue: 0,0:02:55.62,0:02:59.12,Default,NTP,0,0,0,!Effect,{i1}Я сообщу, когда мистер Чон прибудет на место{i0}
Dialogue: 0,0:03:05.83,0:03:09.25,Default,NTP,0,0,0,!Effect,Наше расширение подходит к концу.
Dialogue: 0,0:05:35.66,0:05:36.91,Default,NTP,0,0,0,!Effect,Что?...
Dialogue: 0,0:05:38.20,0:05:39.50,Default,NTP,0,0,0,!Effect,Кто вы?
Dialogue: 0,0:05:44.12,0:05:45.20,Default,NTP,0,0,0,!Effect,Мистер Лим?
Dialogue: 0,0:05:51.00,0:05:53.00,Default,NTP,0,0,0,!Effect,Надеюсь, у вас сегодня нет встреч.
Dialogue: 0,0:05:53.75,0:05:55.04,Default,NTP,0,0,0,!Effect,Я буду краток.
Dialogue: 0,0:06:01.95,0:06:03.29,Default,NTP,0,0,0,!Effect,Получилось отлично.
Dialogue: 0,0:06:08.50,0:06:10.79,Default,NTP,0,0,0,!Effect,Четвертая минута,Nтридцать третья секунда...
Dialogue: 0,0:06:35.29,0:06:36.87,Default,NTP,0,0,0,!Effect,Что тебе надо?
Dialogue: 0,0:06:36.95,0:06:40.54,Default,NTP,0,0,0,!Effect,{i1}Во время кризиса вашей компании...{i0}
Dialogue: 0,0:06:40.54,0:06:45.00,Default,NTP,0,0,0,!Effect,...почему мы оказали вам помощь безотговорочно?
ОценкаНикто ещё не поставил оценку КатегорияЗарубежные фильмы Раздают4 Качают0 Сидер замечен10-06-2019 12:19:12 (4 минуты назад) Добавлен21-01-2019 21:28:20 (5 месяцев назад) Размер1.48 GB (1586643304 Bytes)Сэмпл
Качество видео: WEBDLRip-AVC -Перевод: Любительский (двухголосый закадровый)
Формат видео: MKV
Ворон иПрежде чем качать видео и комментировать, скачайте сэмпл и послушайте!

Продолжительность: 01:30:48
Год выпуска: 2017
Жанр: нуар, криминал, боевик, драма
Исходник: A.Special.Lady.2017.1080p.WEB-DL.AAC.x264
Kesu

В ролях: Ким Хе Су, Ли Сон Гюн, Ли Хи Чжун, Чхве Му Сон, Ким Мин Сок, Ли Хён Голь, Ким Тхэ Гём, О Ха Ни, Квон Юль, Чха Сун Бэ

Озвучивание:Cубтитры: pусские
Драгоценная женщина / A Special Lady / Miok

Страна: Южная Корея
Оригинальная аудиодорожка: Корейский

Видео: 800x336 (2,40:1), 23,976 fps, x264 ~1944 kbps avg, 0.302 bit/pixel
Аудио: 48 kHz, AC3 Dolby Digital, 2/0 (L,R) ch, ~192 kbps (Русский)
Аудио 2: 48 kHz, AC3 Dolby Digital, 2/0 (L,R) ch, ~192 kbps (Корейский)
Перевод и редактура: Сова-сан

Если у вас возникли проблемы с закачкой Драгоценная женщина / A Special Lady / Miok (2017) WEB-DLRip-AVC от Batafurai Team | L2, перейдите по ссылке - там вы найдете решение своей проблемы.

Категория: Зарубежные фильмы

 

Скачать Драгоценная женщина / A Special Lady / Miok (2017) WEB-DLRip-AVC от Batafurai Team | L2 бесплатно без регистрации

 

Информация
Посетители, находящиеся в группе Гости, не могут оставлять комментарии к данной публикации.
 
 
Скачать Драгоценная женщина / A Special Lady / Miok (2017) WEB-DLRip-AVC от Batafurai Team | L2 бесплатно без регистрацииCopyright © 2019 .