Скачать Поиск / The Search (2014) BDRip 1080p от MediaClub бесплатно без регистрации






Информация о фильме
Silverok, за BDRemux спасибоЗвук:
Русский (DTS, 6 ch, 768 Кбит/с) / Авторский (Юрий Живов)
Французский (DTS, 6 ch, 768 Кбит/с)
Название: Поиск
О фильме:
В фильме переплетаются две судьбы - русского парня, у которого милиция обнаружила наркотики и отправила в военкомат, откуда он пошёл воевать на Вторую чеченскую войну, и чеченского мальчика, потерявшего в войне родных. Сотрудница гуманитарного центра (Беренис Бежо) подружилась с мальчиком и хочет забрать ребенка с собой, чтобы увезти его из раздираемого войной региона. Но мальчика ищет его мать, которая полна решимости вернуть сына любой ценой...



ylnian
За сборку дороги спасибоОригинальное название: The Search
Видео: MPEG-4 AVC, 11982 Кбит/с, 1920x1024, 24 кадр/с
В ролях: Беренис Бежо, Аннетт Бенинг, Максим Емельянов, Абдул Халим Мамуциев, Зухра Дуишвили, Лела Багакашвили, Юрий Цурило, Антон Долгов, Мамука Мачитидзе, Русудан Пареулидзе

Страна: Франция, Грузия
Перевод: Авторский одноголосый закадровый

Продолжительность: 02:14:35
silverina64 Оценка1 из 10 (1 голосов, самая низкая оценка - 1, самая высокая - 1) КатегорияЗарубежные фильмы Раздают1 Качают1 Сидер замечен10-06-2019 11:19:12 (4 минуты назад) Добавлен15-12-2016 15:10:03 (30 месяцев назад) Размер12.70 GB (13640405901 Bytes)ylnian
Заказ перевода у Юрия Живова (август 2016) -Silverok ЗалилСтудия: Canal+ [fr], Ciné, France 3 Cinéma, France Télévisions
Juris спасибоГод выхода: 2014
Качество: BDRip 1080p
rammzez
Источник - Blu-Ray (GER) - Die.Suche.2014.DUAL.COMPLETE.BLURAY-GMB
За русские субтитры отСемпл

О релизе Автор релиза -05derrick

Фильм, в основном, снят на французском языке, но также есть диалоги на русском (оставил их без перевода), английском и чеченском
MIGeneral
Unique ID : 176514481286995675028104982534155699699 (0x84CB73D7E20105F5926D134981C885F3)
Complete name : D:uTorrentPoisk.2014.BDRip.1080p.MediaClub.mkv
Format : Matroska
Format version : Version 4 / Version 2
File size : 12.7 GiB
Duration : 2 h 14 min
Overall bit rate : 13.5 Mb/s
Encoded date : UTC 2016-12-15 11:23:25
Writing application : mkvmerge v9.4.2 ('So High') 64bit
Writing library : libebml v1.3.4 + libmatroska v1.4.5

Video
ID : 1
Format : AVC
Format/Info : Advanced Video Codec
Format profile : High@L4.1
Format settings, CABAC : Yes
Format settings, ReFrames : 4 frames
Codec ID : V_MPEG4/ISO/AVC
Duration : 2 h 14 min
Bit rate : 12.0 Mb/s
Width : 1 920 pixels
Height : 1 024 pixels
Display aspect ratio : 1.85:1
Frame rate mode : Constant
Frame rate : 24.000 FPS
Color space : YUV
Chroma subsampling : 4:2:0
Bit depth : 8 bits
Scan type : Progressive
Bits/(Pixel*Frame) : 0.254
Stream size : 11.3 GiB (89%)
Title : BDRip by Silverok
Writing library : x264 core 148 r2638 7599210
Encoding settings : cabac=1 / ref=4 / deblock=1:-3:-3 / analyse=0x3:0x113 / me=umh / subme=11 / psy=1 / psy_rd=1.00:0.10 / mixed_ref=1 / me_range=48 / chroma_me=1 / trellis=2 / 8x8dct=1 / cqm=0 / deadzone=21,11 / fast_pskip=0 / chroma_qp_offset=-3 / threads=6 / lookahead_threads=1 / sliced_threads=0 / nr=0 / decimate=0 / interlaced=0 / bluray_compat=0 / constrained_intra=0 / bframes=16 / b_pyramid=2 / b_adapt=2 / b_bias=0 / direct=3 / weightb=1 / open_gop=0 / weightp=2 / keyint=240 / keyint_min=24 / scenecut=40 / intra_refresh=0 / rc_lookahead=60 / rc=2pass / mbtree=0 / bitrate=11982 / ratetol=1.0 / qcomp=0.60 / qpmin=0 / qpmax=69 / qpstep=4 / cplxblur=20.0 / qblur=0.5 / vbv_maxrate=62500 / vbv_bufsize=78125 / nal_hrd=none / filler=0 / ip_ratio=1.40 / pb_ratio=1.30 / aq=1:1.00
Default : Yes
Forced : No

Audio #1
ID : 2
Format : DTS
Format/Info : Digital Theater Systems
Mode : 16
Format settings, Endianness : Big
Codec ID : A_DTS
Duration : 2 h 14 min
Bit rate mode : Constant
Bit rate : 768 kb/s
Channel(s) : 6 channels
Channel positions : Front: L C R, Side: L R, LFE
Sampling rate : 48.0 kHz
Frame rate : 93.750 FPS (512 spf)
Bit depth : 16 bits
Compression mode : Lossy
Stream size : 739 MiB (6%)
Title : Авторский (Юрий Живов)
Language : Russian
Default : Yes
Forced : No

Audio #2
ID : 3
Format : DTS
Format/Info : Digital Theater Systems
Mode : 16
Format settings, Endianness : Big
Codec ID : A_DTS
Duration : 2 h 14 min
Bit rate mode : Constant
Bit rate : 768 kb/s
Channel(s) : 6 channels
Channel positions : Front: L C R, Side: L R, LFE
Sampling rate : 48.0 kHz
Frame rate : 93.750 FPS (512 spf)
Bit depth : 16 bits
Compression mode : Lossy
Stream size : 739 MiB (6%)
Language : French
Default : No
Forced : No

Text
ID : 4
Format : UTF-8
Codec ID : S_TEXT/UTF8
Codec ID/Info : UTF-8 Plain Text
Duration : 2 h 9 min
Bit rate : 50 b/s
Count of elements : 1283
Stream size : 47.9 KiB (0%)
Language : Russian
Default : No
Forced : No
Скриншоты

Жанр: Драма, военный
Субтитры: Русские

Релиз от: |Режиссер: Мишель Хазанавичус
Кодек: h.264

Если у вас возникли проблемы с закачкой Поиск / The Search (2014) BDRip 1080p от MediaClub, перейдите по ссылке - там вы найдете решение своей проблемы.

Категория: Зарубежные фильмы

 

Скачать Поиск / The Search (2014) BDRip 1080p от MediaClub бесплатно без регистрации

 

Информация
Посетители, находящиеся в группе Гости, не могут оставлять комментарии к данной публикации.
 
 
Скачать Поиск / The Search (2014) BDRip 1080p от MediaClub бесплатно без регистрацииCopyright © 2019 .