Скачать Американский психопат 2: Стопроцентная американка / American Psycho II: All American Girl (2002) WEB-DL 720p | P2, A бесплатно без регистрации







Информация о фильме
Режиссер: Морган Дж. Фриман

Студия: Lions Gate Films Inc.
Субтитры: Русские, Английские

Скриншоты



MediaInfoФормат : Matroska
Версия формата : Version 2
Размер файла : 3,11 Гбайт
Продолжительность : 1 ч. 28 м.
Общий поток : 5040 Кбит/сек
Дата кодирования : UTC 2016-06-27 08:42:51
Программа кодирования : mkvmerge v5.4.0 ('Piper') built on Mar 10 2012 13:34:39
Библиотека кодирования : libebml v1.2.3 + libmatroska v1.3.0

Видео
Идентификатор : 1
Формат : AVC
Формат/Информация : Advanced Video Codec
Профиль формата : High@L3.1
Параметр CABAC формата : Нет
Параметр ReFrames формата : 2 кадра
Параметр GOP формата : M=2, N=74
Идентификатор кодека : V_MPEG4/ISO/AVC
Продолжительность : 1 ч. 28 м.
Битрейт : 3980 Кбит/сек
Ширина : 1280 пикселей
Высота : 716 пикселей
Соотношение сторон : 16:9
Режим частоты кадров : Постоянный
Частота кадров : 23,976 кадра/сек
Цветовое пространство : YUV
Субдискретизация насыщенности : 4:2:0
Битовая глубина : 8 бит
Тип развёртки : Прогрессивная
Бит/(Пиксели*Кадры) : 0.181
Размер потока : 2,46 Гбайт (79%)
Заголовок : American Psycho II: All American Girl / Американский психопат 2: Стопроцентная американка (2002)
Язык : English
Default : Да
Forced : Нет
Основные цвета : BT.709
Характеристики трансфера : BT.709
Коэффициенты матрицы : BT.709
colour_range : Limited

Аудио #1
Идентификатор : 2
Формат : AC-3
Формат/Информация : Audio Coding 3
Расширение режима : CM (complete main)
Параметр Endianness формата : Big
Идентификатор кодека : A_AC3
Продолжительность : 1 ч. 28 м.
Вид битрейта : Постоянный
Битрейт : 384 Кбит/сек
Каналы : 6 каналов
Расположение каналов : Front: L C R, Side: L R, LFE
Частота : 48,0 КГц
Битовая глубина : 16 бит
Метод сжатия : С потерями
Размер потока : 243 Мбайт (8%)
Заголовок : DVO (Russian) West Video
Язык : Russian
Default : Да
Forced : Нет

Аудио #2
Идентификатор : 3
Формат : AC-3
Формат/Информация : Audio Coding 3
Расширение режима : CM (complete main)
Параметр Endianness формата : Big
Идентификатор кодека : A_AC3
Продолжительность : 1 ч. 28 м.
Вид битрейта : Постоянный
Битрейт : 192 Кбит/сек
Каналы : 2 канала
Расположение каналов : Front: L R
Частота : 48,0 КГц
Битовая глубина : 16 бит
Метод сжатия : С потерями
Размер потока : 122 Мбайт (4%)
Заголовок : AVO (Ю.Сербин)
Язык : Russian
Default : Нет
Forced : Нет

Аудио #3
Идентификатор : 4
Формат : AC-3
Формат/Информация : Audio Coding 3
Расширение режима : CM (complete main)
Параметр Endianness формата : Big
Идентификатор кодека : A_AC3
Продолжительность : 1 ч. 28 м.
Вид битрейта : Постоянный
Битрейт : 384 Кбит/сек
Каналы : 6 каналов
Расположение каналов : Front: L C R, Side: L R, LFE
Частота : 48,0 КГц
Битовая глубина : 16 бит
Метод сжатия : С потерями
Размер потока : 243 Мбайт (8%)
Заголовок : Original (English)
Язык : English
Default : Нет
Forced : Нет

Текст #1
Идентификатор : 5
Формат : UTF-8
Идентификатор кодека : S_TEXT/UTF8
Идентификатор кодека/Информация : UTF-8 Plain Text
Заголовок : Rus
Язык : Russian
Default : Нет
Forced : Нет

Текст #2
Идентификатор : 6
Формат : UTF-8
Идентификатор кодека : S_TEXT/UTF8
Идентификатор кодека/Информация : UTF-8 Plain Text
Заголовок : Eng
Язык : English
Default : Нет
Forced : Нет

Меню
00:00:00.000 : en:Overnight Sensation
00:03:54.000 : en:Contenders
00:08:31.000 : en:School Policy
00:13:09.000 : en:Not Taking No
00:17:09.000 : en:Confess
00:21:30.000 : en:With A Condom
00:25:13.000 : en:First Session
00:27:33.000 : en:Privacy Code
00:32:26.000 : en:Letting Down
00:35:40.000 : en:Good Day Doctor
00:38:45.000 : en:He Was Both
00:42:23.000 : en:Good For Her
00:45:38.000 : en:The Big Day
00:49:00.000 : en:Relaxing Bobby
00:52:58.000 : en:Heart Breaker
00:57:11.000 : en:Confused
00:59:14.000 : en:Plans With Mom
01:02:38.000 : en:Dinner
01:05:57.000 : en:Catching Up
01:08:43.000 : en:Missing Persons
01:12:16.000 : en:Under Control
01:16:32.000 : en:Old Mill Bend
01:19:16.000 : en:Two Years Later
01:22:59.000 : en:End Credits

Название: Американский психопат 2: Стопроцентная американка
В ролях:
Продолжительность: 01:28:29
Год выхода: 2002
Линди Бут — Кассандра Блэр,Перевод: Профессиональный двухголосый, Авторский одноголосый, Оригинал

Страна: США
Видео: 1280x716 (16:9), 23.976 fps, MPEG-4 AVC, 3980 Kbps
Релиз от: Ким Шранер — Элизабэт МакГуаер,Аудио #2: AC3, 192 Kbps, 48.0 KHz, 2 ch (Rus) Авторский одноголосый,Soroka1989 ОценкаНикто ещё не поставил оценку КатегорияЗарубежные фильмы Раздают1 Качают2 Сидер замечен10-06-2019 10:19:11 (4 минуты назад) Добавлен30-06-2016 3:54:19 (36 месяцев назад) Размер3.11 GB (3344656549 Bytes)Чарльз Оффисер — Кит Лоусон,Оригинальное название: American Psycho II: All American Girl
Ким Пуарье — Барбара Браун,Аудио #3: AC3, 384 Kbps, 48.0 KHz, 6 ch (Eng) Оригинал
Качество: WEB-DL 720p
О фильме:
У студентки престижного колледжа, поступившей на курсы знаменитого «охотника на маньяков» — профессора-криминалиста Роберта Старкмана, далеко идущие планы: тот, кто станет помощником Старкмана, обязательно поступит в престижную академию ФБР, а Рейчел так хочется пойти по стопам профессора. Жаль только, что у нее много конкурентов, но не беда — их легко устранить, когда прилежно штудируешь методы легендарных убийц. Ради этого решительная девушка готова стать новой «американской психопаткой», но сможет ли она добиться желанной цели, не повторив судьбу своего кумира Патрика Бэйтмана?



Джерент Вин Дэйвис — доктор Эрик Дэниэлз,Ю.Сербин
Уильям Шетнер — профессор Роберт Старкман,Аудио #1: AC3, 384 Kbps, 48.0 KHz, 6 ch (Rus) Профессиональный двухголосый,West Video
Мила Кунис — Рэйчел Ньюман,Кейт Келтон — няня Клара.

Робин Данн — Брайан Лидс,Звук:
K_A_E ЗалилЖанр: триллер, криминал

Если у вас возникли проблемы с закачкой Американский психопат 2: Стопроцентная американка / American Psycho II: All American Girl (2002) WEB-DL 720p | P2, A, перейдите по ссылке - там вы найдете решение своей проблемы.

Категория: Зарубежные фильмы

 

Скачать Американский психопат 2: Стопроцентная американка / American Psycho II: All American Girl (2002) WEB-DL 720p | P2, A бесплатно без регистрации

 

Информация
Посетители, находящиеся в группе Гости, не могут оставлять комментарии к данной публикации.
 
 
Скачать Американский психопат 2: Стопроцентная американка / American Psycho II: All American Girl (2002) WEB-DL 720p | P2, A бесплатно без регистрацииCopyright © 2019 .