Скачать Тайна красной планеты / Mars Needs Moms (2011) BDRip 720 от SuperMin бесплатно без регистрации






Информация о фильме
SuperMin Оценка10 из 10 (1 голосов, самая низкая оценка - 10, самая высокая - 10) КатегорияМультипликация Раздают4 Качают0 Сидер замечен10-06-2019 10:19:11 (4 минуты назад) Добавлен14-09-2015 22:18:18 (45 месяцев назад) Размер2.70 GB (2900383495 Bytes)В ролях: Сет Грин, Дэн Фоглер, Джоан Кьюсак, Элизабет Арнуа, Мелинда Стерлинг, Кевин Кахун, Том Эверетт Скотт, Жаки Барнбрук, Мэттью Хенерсон, Адам Дженнингс

О фильме:
Есть мерзкую брокколи, выносить мусор, рано ложиться спать - кому вообще нужны мамы, заставляющие это делать? Так думал Майло, пока не обнаружил, что его маму похитили марсиане. Тут-то и оказалось, что ему предстоит отправиться на другую планету, чтобы найти маму и вернуть ее домой.



Название: Тайна красной планеты
Релиз от: SuperMin ЗалилКодек: H.264
Режиссер: Саймон Уэллс
Субтитры: Русские
Логx264 [info]: frame I:1057 Avg QP:12.30 size:153899
x264 [info]: frame P:35606 Avg QP:16.14 size: 40065
x264 [info]: frame B:90034 Avg QP:20.02 size: 11696
x264 [info]: consecutive B-frames: 4.8% 5.4% 22.9% 27.3% 16.1% 19.1% 2.4% 1.0% 1.0%
encoded 126697 frames, 2.20 fps, 4000.10 kb/s
MIVideo
ID : 1
Format : AVC
Format/Info : Advanced Video Codec
Format profile : High@L4.1
Format settings, CABAC : Yes
Format settings, ReFrames : 10 frames
Codec ID : V_MPEG4/ISO/AVC
Duration : 1h 28mn
Bit rate : 4 000 Kbps
Width : 1 280 pixels
Height : 536 pixels
Display aspect ratio : 2.40:1
Frame rate mode : Constant
Frame rate : 23.976 fps
Color space : YUV
Chroma subsampling : 4:2:0
Bit depth : 8 bits
Scan type : Progressive
Bits/(Pixel*Frame) : 0.243
Stream size : 2.41 GiB (89%)
Writing library : x264 core 146 r2538 121396c
Encoding settings : cabac=1 / ref=10 / deblock=1:0:0 / analyse=0x3:0x113 / me=umh / subme=11 / psy=1 / psy_rd=1.00:0.00 / mixed_ref=1 / me_range=24 / chroma_me=1 / trellis=2 / 8x8dct=1 / cqm=0 / deadzone=21,11 / fast_pskip=0 / chroma_qp_offset=-2 / threads=3 / lookahead_threads=1 / sliced_threads=0 / nr=0 / decimate=1 / interlaced=0 / bluray_compat=0 / constrained_intra=0 / bframes=8 / b_pyramid=2 / b_adapt=2 / b_bias=0 / direct=3 / weightb=1 / open_gop=0 / weightp=2 / keyint=240 / keyint_min=22 / scenecut=40 / intra_refresh=0 / rc_lookahead=40 / rc=2pass / mbtree=1 / bitrate=4000 / ratetol=1.0 / qcomp=0.60 / qpmin=0 / qpmax=69 / qpstep=4 / cplxblur=20.0 / qblur=0.5 / vbv_maxrate=62500 / vbv_bufsize=78125 / nal_hrd=none / filler=0 / ip_ratio=1.40 / aq=1:1.00
Default : Yes
Forced : No

Audio
ID : 2
Format : AC-3
Format/Info : Audio Coding 3
Mode extension : CM (complete main)
Format settings, Endianness : Big
Codec ID : A_AC3
Duration : 1h 28mn
Bit rate mode : Constant
Bit rate : 384 Kbps
Channel count : 6 channels
Channel positions : Front: L C R, Side: L R, LFE
Sampling rate : 48.0 KHz
Bit depth : 16 bits
Compression mode : Lossy
Stream size : 242 MiB (9%)
Title : Дубляж
Language : Russian
Default : Yes
Forced : No

Text
ID : 3
Format : PGS
Muxing mode : zlib
Codec ID : S_HDMV/PGS
Codec ID/Info : The same subtitle format used on BDs/HD-DVDs
Language : Russian
Default : Yes
Forced : No


Скриншоты
Скриншот исходника
Оригинальное название: Mars Needs Moms
Продолжительность: 01:28:04
Перевод: Профессиональный (полное дублирование)

Год выхода: 2011
Страна: США
Видео: 1280х536 (2.40:1), 4000 Kbps, 23.976 fps
Качество: BDRip 720 от SuperMin
Звук: Русский (AC-3, 6ch, 384 kbps)
Жанр: мультфильм, фантастика, семейный

Если у вас возникли проблемы с закачкой Тайна красной планеты / Mars Needs Moms (2011) BDRip 720 от SuperMin, перейдите по ссылке - там вы найдете решение своей проблемы.

Категория: Мультипликация

 

Скачать Тайна красной планеты / Mars Needs Moms (2011) BDRip 720 от SuperMin бесплатно без регистрации

 

Информация
Посетители, находящиеся в группе Гости, не могут оставлять комментарии к данной публикации.
 
 
Скачать Тайна красной планеты / Mars Needs Moms (2011) BDRip 720 от SuperMin бесплатно без регистрацииCopyright © 2019 .