Скачать Трудности перевода / Lost in Translation (2003) BDRip 720p | D бесплатно без регистрации






Информация о фильме
О фильме:
Токио, ночь, фешенебельный бар дорогого отеля… Здесь, спасаясь от бессонницы, встречаются двое американцев: телевизионный актер Боб Харрис и симпатичная молодая женщина Шарлотта.
Познакомившись, они пускаются вместе в путешествие по японской столице. Во время своей многочасовой прогулки Боб и Шарлотта попадают в забавные истории и неожиданные перипетии, знакомясь с местными жителями.
Жизнь восточного мира открывается американцам яркими и незнакомыми гранями, помогает обнаружить в себе веру в потрясающие человеческие возможности. А случайные встречи становятся очень нужными и важными для постижения жизни.



Перевод: Профессиональный (полное дублирование)

В ролях: Скарлетт Йоханссон, Билл Мюррэй, Джованни Рибизи, Анна Фэрис, Кэтрин Лэмберт, Акико Такешита, Фумихиро Хаяши, Хироко Кавасаки, Нобухико Китамура

Звук: Russian, AC3, 48000Hz, 6ch, 448kbps
Субтитры: русские форсированные и полные

MediaInfo General
Unique ID : 193389039820643370589939472428628381235 (0x917D5FD03429A5019E752C6A67FF0E33)
Complete name : D:Трудности перевода.2003.BDRip.720р.mkv
Format : Matroska
Format version : Version 4 / Version 2
File size : 3.53 GiB
Duration : 1 h 41 min
Overall bit rate : 4 962 kb/s
Encoded date : UTC 2017-05-04 06:22:32
Writing application : mkvmerge v8.3.0 ('Over the Horizon') 64bit
Writing library : libebml v1.3.1 + libmatroska v1.4.2 / Lavf57.57.100

Video
ID : 1
Format : AVC
Format/Info : Advanced Video Codec
Format profile : High@L4.1
Format settings, CABAC : Yes
Format settings, ReFrames : 4 frames
Codec ID : V_MPEG4/ISO/AVC
Duration : 1 h 41 min
Bit rate : 4 517 kb/s
Width : 1 280 pixels
Height : 694 pixels
Display aspect ratio : 1.85:1
Frame rate mode : Constant
Frame rate : 23.976 (24000/1001) FPS
Color space : YUV
Chroma subsampling : 4:2:0
Bit depth : 8 bits
Scan type : Progressive
Bits/(Pixel*Frame) : 0.212
Stream size : 3.21 GiB (91%)
Writing library : Lavc57.66.101 nvenc_h264
Language : English
Default : Yes
Forced : No

Audio
ID : 2
Format : AC-3
Format/Info : Audio Coding 3
Format settings, Endianness : Big
Codec ID : A_AC3
Duration : 1 h 41 min
Bit rate mode : Constant
Bit rate : 448 kb/s
Channel(s) : 6 channels
Channel positions : Front: L C R, Side: L R, LFE
Sampling rate : 48.0 kHz
Frame rate : 31.250 FPS (1536 spf)
Bit depth : 16 bits
Compression mode : Lossy
Stream size : 326 MiB (9%)
Language : Russian
Service kind : Complete Main
Default : Yes
Forced : No

Text #1
ID : 3
Format : UTF-8
Codec ID : S_TEXT/UTF8
Codec ID/Info : UTF-8 Plain Text
Duration : 3 min 4 s
Bit rate : 100 b/s
Count of elements : 46
Stream size : 2.28 KiB (0%)
Title : RUS.FORCED
Language : Russian
Default : Yes
Forced : Yes

Text #2
ID : 4
Format : UTF-8
Codec ID : S_TEXT/UTF8
Codec ID/Info : UTF-8 Plain Text
Duration : 1 h 36 min
Bit rate : 51 b/s
Count of elements : 726
Stream size : 36.6 KiB (0%)
Title : RUS.Dub
Language : Russian
Default : No
Forced : No

Text #3
ID : 5
Format : UTF-8
Codec ID : S_TEXT/UTF8
Codec ID/Info : UTF-8 Plain Text
Duration : 1 h 35 min
Bit rate : 62 b/s
Count of elements : 793
Stream size : 43.8 KiB (0%)
Title : RUS.Remez
Language : Russian
Default : No
Forced : No

Text #4
ID : 6
Format : UTF-8
Codec ID : S_TEXT/UTF8
Codec ID/Info : UTF-8 Plain Text
Duration : 1 h 34 min
Bit rate : 63 b/s
Count of elements : 872
Stream size : 44.4 KiB (0%)
Title : RUS.Stalk
Language : Russian
Default : No
Forced : No

Menu
00:00:00.000 : :Глава 01
00:10:00.000 : :Глава 02
00:20:00.000 : :Глава 03
00:30:00.000 : :Глава 04
00:40:00.000 : :Глава 05
00:50:00.000 : :Глава 06
01:00:00.000 : :Глава 07
01:10:00.000 : :Глава 08
01:20:00.000 : :Глава 09
01:30:00.000 : :Глава 10
01:40:00.000 : :Глава 11
Скриншоты ОценкаНикто ещё не поставил оценку КатегорияЗарубежные фильмы Раздают9 Качают1 Сидер замечен10-06-2019 9:19:11 (4 минуты назад) Добавлен04-05-2017 9:54:32 (26 месяцев назад) Размер3.53 GB (3787378939 Bytes)Продолжительность: 01:41:40
Режиссер: София Коппола
Кодек: H264
Жанр: драма, мелодрама, комедия
Видео: 4 517 kb/s, 1280x694, 23.976fps, high L4.1, yuv420p
Год выхода: 2003
Название: Трудности перевода
Страна: США, Япония
Оригинальное название: Lost in Translation
Качество: BDRip 720p

Если у вас возникли проблемы с закачкой Трудности перевода / Lost in Translation (2003) BDRip 720p | D, перейдите по ссылке - там вы найдете решение своей проблемы.

Категория: Зарубежные фильмы

 

Скачать Трудности перевода / Lost in Translation (2003) BDRip 720p | D бесплатно без регистрации

 

Информация
Посетители, находящиеся в группе Гости, не могут оставлять комментарии к данной публикации.
 
 
Скачать Трудности перевода / Lost in Translation (2003) BDRip 720p | D бесплатно без регистрацииCopyright © 2019 .