Скачать В любви и войне / In Love and War (1996) WEB-DL 1080p | P, P2 бесплатно без регистрации






Информация о фильме
Студия: Dimitri Villard Productions, New Line Cinema
Страна: США
Видео: 1902x768 at 23.976 fps, MPEG-4 AVC, ~4416 kbps avg
Формат: Matroska
Аудио#2: Russian: 48 kHz, AC3, 3/2 (L,C,R,l,r) + LFE ch, ~448 kbps avg |Многоголосый закадровый, Велес [DVD]|
MPAA: PG-13 - Детям до 13 лет просмотр не желателен

Аудио#3: Russian: 48 kHz, AC3, 2/0 (L,R) ch, ~128 kbps avg |Двухголосый закадровый, Фортуна-Фильм [VHS]|
Аудио#4: English: 48 kHz, AAC, 2/0 (L,R) ch, ~126 kbps avg
О фильме:
1918 год, Первая Мировая война. Молодой американский репортер Эрнест Хэмингуэй приезжает в Италию, просится на фронт, но получает отказ. На линии огня он попадает под обстрел врага, попадет в госпиталь, в котором работает американская медсестра Агнес фон Куровски. Они влюбляются друг в друга. Агнес переводят ближе к фронту, она уезжает, не успев попрощаться с Эрни, оставляет ему прощальное письмо через друга «Гарри»…



В ролях: МакКензи Эстин (Henry Villard), Крис О’Доннелл (Ernest «Ernie» Hemingway), Марго Стейнберг (Mabel «Rosie» Rose), Сандра Буллок (Agnes von Kurowsky), Алан Беннетт (Porter), Ингрид Лэйси (Elsie «Mac» MacDonald), Теренс Сакс (Porter), Карло Кроччоло (Town Mayor), Тара Хьюго (Katherine «Gumshoe» De Long), Гиги Виван (Italian Child), Джузеппе Бонато (Grandfather), Allegra Di Carpegna (Loretta Cavanaugh)

Субтитры: Russian, English

***Сохранены и подписаны оригинальные главы.
***Звуковая дорожка #3, предоставленная Lucian666 - с VHS: качество низкое, но диалоги вполне разборчивы.
***Релиз: MZMA.

MediaInfoОбщее
Уникальный идентификатор : 194102022252139660258169729124245227962 (0x9206B08FAA324AE39FB3E62630F4C9BA)
Полное имя : В.любви.и.войне.1996.WEB-DL.1080p.mkv
Формат : Matroska
Версия формата : Version 2
Размер файла : 4,28 Гбайт
Продолжительность : 1 ч. 53 м.
Общий поток : 5401 Кбит/сек
Дата кодирования : UTC 2018-02-01 21:05:19
Программа кодирования : mkvmerge v5.8.0 ('No Sleep / Pillow') built on Sep 2 2012 15:37:04
Библиотека кодирования : libebml v1.2.3 + libmatroska v1.3.0

Видео
Идентификатор : 1
Формат : AVC
Формат/Информация : Advanced Video Codec
Профиль формата : High@L4.0
Параметр CABAC формата : Да
Параметр ReFrames формата : 5 кадров
Идентификатор кодека : V_MPEG4/ISO/AVC
Продолжительность : 1 ч. 53 м.
Ширина : 1902 пикселя
Высота : 768 пикселей
Соотношение сторон : 2,477
Режим частоты кадров : Постоянный
Частота кадров : 23,976 кадра/сек
Цветовое пространство : YUV
Субдискретизация насыщенности : 4:2:0
Битовая глубина : 8 бит
Тип развёртки : Прогрессивная
Язык : English
Default : Да
Forced : Нет
Основные цвета : BT.709
Характеристики трансфера : BT.709
Коэффициенты матрицы : BT.709

Аудио #1
Идентификатор : 2
Формат : AC-3
Формат/Информация : Audio Coding 3
Расширение режима : CM (complete main)
Параметр Endianness формата : Big
Идентификатор кодека : A_AC3
Продолжительность : 1 ч. 53 м.
Вид битрейта : Постоянный
Битрейт : 192 Кбит/сек
Каналы : 2 канала
Расположение каналов : Front: L R
Частота : 48,0 КГц
Битовая глубина : 16 бит
Метод сжатия : С потерями
Размер потока : 156 Мбайт (4%)
Заголовок : MVO | 2.0
Язык : Russian
Default : Да
Forced : Нет

Аудио #2
Идентификатор : 3
Формат : AC-3
Формат/Информация : Audio Coding 3
Расширение режима : CM (complete main)
Параметр Endianness формата : Big
Идентификатор кодека : A_AC3
Продолжительность : 1 ч. 53 м.
Вид битрейта : Постоянный
Битрейт : 448 Кбит/сек
Каналы : 6 каналов
Расположение каналов : Front: L C R, Side: L R, LFE
Частота : 48,0 КГц
Битовая глубина : 16 бит
Метод сжатия : С потерями
Размер потока : 363 Мбайт (8%)
Заголовок : MVO | Велес | 5.1, DVD
Язык : Russian
Default : Нет
Forced : Нет

Аудио #3
Идентификатор : 4
Формат : AC-3
Формат/Информация : Audio Coding 3
Расширение режима : CM (complete main)
Параметр Endianness формата : Big
Идентификатор кодека : A_AC3
Продолжительность : 1 ч. 53 м.
Вид битрейта : Постоянный
Битрейт : 128 Кбит/сек
Каналы : 2 канала
Расположение каналов : Front: L R
Частота : 48,0 КГц
Битовая глубина : 16 бит
Метод сжатия : С потерями
Размер потока : 104 Мбайт (2%)
Заголовок : DVO | Фортуна-фильм | 2.0, VHS
Язык : Russian
Default : Нет
Forced : Нет

Аудио #4
Идентификатор : 5
Формат : AAC
Формат/Информация : Advanced Audio Codec
Профиль формата : LC
Идентификатор кодека : A_AAC
Продолжительность : 1 ч. 53 м.
Каналы : 2 канала
Расположение каналов : Front: L R
Частота : 48,0 КГц
Метод сжатия : С потерями
Заголовок : Original | 2.0, WEB-DL
Язык : English
Default : Нет
Forced : Нет

Текст #1
Идентификатор : 6
Формат : UTF-8
Идентификатор кодека : S_TEXT/UTF8
Идентификатор кодека/Информация : UTF-8 Plain Text
Заголовок : Велес
Язык : Russian
Default : Нет
Forced : Нет

Текст #2
Идентификатор : 7
Формат : UTF-8
Идентификатор кодека : S_TEXT/UTF8
Идентификатор кодека/Информация : UTF-8 Plain Text
Язык : English
Default : Нет
Forced : Нет

Меню
00:00:00.000 : en:Main Title
00:02:51.000 : en:Northern Italy,1918
00:08:38.000 : en:Hemingway Reports For Duty
00:11:20.000 : en:Ernie In The Trenches
00:19:02.000 : en:A Wounded Man
00:27:54.000 : en:The Operating Room
00:32:56.000 : en:New Patients
00:35:44.000 : en:Ernie's First Move
00:38:10.000 : en:Date With The Doctor
00:44:23.000 : en:No Patience
00:49:45.000 : en:Three On A Picnic
00:57:12.000 : en:Jimmy's Solution
01:00:35.000 : en:The Letter
01:05:14.000 : en:Agnes Says Goodbye
01:09:49.000 : en:Ernie's Orders
01:12:08.000 : en:So Near
01:17:13.000 : en:So Far
01:20:18.000 : en:Caracciolo's Weekend
01:26:19.000 : en:"The War Is Over."
01:27:52.000 : en:Agnes' Dilema
01:35:22.000 : en:New York.Eight Months Later
01:38:58.000 : en:Waloon Lake
01:47:58.000 : en:Coda
01:49:17.000 : en:End CeditsСкриншоты ОценкаНикто ещё не поставил оценку КатегорияЗарубежные фильмы Раздают0 Качают1 Сидер замечен17-05-2019 4:19:06 (24 дня назад) Добавлен07-02-2018 14:36:30 (16 месяцев назад) Размер4.28 GB (4594727307 Bytes)Продолжительность: 01:53:25
Год выпуска: 1996
Качество: WEB-DL 1080p
Режиссер: Ричард Аттенборо
Оригинальное название: In Love and War
Аудио#1: Russian: 48 kHz, AC3, 2/0 (L,R) ch, ~192 kbps avg |Многоголосый закадровый|
Перевод: Профессиональный (многоголосый, закадровый) + Профессиональный (многоголосый, закадровый) Велес [DVD] + Профессиональный (двухголосый, закадровый) Фортуна-Фильм [VHS]

Релиз:

Название: В любви и войне
Жанр: драма, мелодрама, военный, биография

Если у вас возникли проблемы с закачкой В любви и войне / In Love and War (1996) WEB-DL 1080p | P, P2, перейдите по ссылке - там вы найдете решение своей проблемы.

Категория: Зарубежные фильмы

 

Скачать В любви и войне / In Love and War (1996) WEB-DL 1080p | P, P2 бесплатно без регистрации

 

Информация
Посетители, находящиеся в группе Гости, не могут оставлять комментарии к данной публикации.
 
 
Скачать В любви и войне / In Love and War (1996) WEB-DL 1080p | P, P2 бесплатно без регистрацииCopyright © 2019 .