Скачать Малыш и Карлсон, Карлсон вернулся, Петя и Красная Шапочка, Опять двойка (1970) BDRip 720p от FREEISLAND бесплатно без регистрации




Видеокодек:H.264
Название: Малыш и Карлсон

В ролях: Валентина Талызина, Олег Табаков, Борис Новиков, Зинаида Нарышкина, Герман Качин, Лев Дуров, Мария Виноградова

delia Оценка10 из 10 (5 голосов, самая низкая оценка - 10, самая высокая - 10) КатегорияМультипликация Раздают4 Качают0 Сидер замечен10-06-2019 4:19:11 (4 минуты назад) Добавлен20-08-2016 17:00:35 (34 месяца назад) Размер4.10 GB (4406935918 Bytes)Описание: Кинорежиссер Борис Степанцев снял дилогию о приключениях «самого лучшего в мире» Карлсона и его друга малыша, которая больше тридцати лет не сходит с экранов, продолжая очаровывать маленьких зрителей и их родителей.





MediaInfo
Общее
Уникальный идентификатор : 208987706423757958832494042891600505258 (0x9D3991744FE86CD283507F9E7E67A9AA)
Полное имя : E:торрентMalyshi_Karlson(1957-1970)BDRip720рMalysh.i.Karlson.(1968-1970) BDRip 720p.mkv
Формат : Matroska
Размер файла : 2,19 Гбайт
Продолжительность : 37 м.
Общий поток : 8284 Кбит/сек
Дата кодирования : UTC 2011-04-28 17:58:08
Программа кодирования : mkvmerge v4.7.0 ('Just Like You Imagined') built on Apr 21 2011 01:13:14
Библиотека кодирования : libebml v1.2.0 + libmatroska v1.1.0

Видео
Идентификатор : 1
Формат : AVC
Формат/Информация : Advanced Video Codec
Профиль формата : High@L4.1
Параметр CABAC формата : Да
Параметр ReFrames формата : 6 кадры
Идентификатор кодека : V_MPEG4/ISO/AVC
Продолжительность : 37 м.
Битрейт : 7832 Кбит/сек
Ширина : 980 пикс.
Высота : 720 пикс.
Соотношение сторон : 4:3
Частота кадров : 25,000 кадр/сек
Цветовое пространство : YUV
Подвыборка цветности : 4:2:0
Битовая глубина : 8 бит
Тип развёртки : Прогрессивная
Бит/(Пиксели*Кадры) : 0.444
Размер потока : 2,03 Гбайт (93%)
Библиотека кодирования : x264 core 114 r1924 08d04a4
Настройки программы : cabac=1 / ref=6 / deblock=1:1:1 / analyse=0x3:0x133 / me=umh / subme=7 / psy=1 / psy_rd=0.40:0.00 / mixed_ref=1 / me_range=32 / chroma_me=1 / trellis=2 / 8x8dct=1 / cqm=0 / deadzone=21,11 / fast_pskip=0 / chroma_qp_offset=-2 / threads=6 / sliced_threads=0 / nr=0 / decimate=1 / interlaced=0 / constrained_intra=0 / bframes=5 / b_pyramid=2 / b_adapt=1 / b_bias=0 / direct=1 / weightb=1 / open_gop=0 / weightp=2 / keyint=250 / keyint_min=24 / scenecut=40 / intra_refresh=0 / rc_lookahead=50 / rc=2pass / mbtree=1 / bitrate=7832 / ratetol=1.0 / qcomp=0.60 / qpmin=0 / qpmax=69 / qpstep=4 / cplxblur=20.0 / qblur=0.5 / ip_ratio=1.40 / aq=1:0.60
Язык : English

Аудио
Идентификатор : 2
Формат : AC-3
Формат/Информация : Audio Coding 3
Расширение режима : CM (complete main)
Идентификатор кодека : A_AC3
Продолжительность : 37 м.
Вид битрейта : Постоянный
Битрейт : 448 Кбит/сек
Канал(ы) : 6 канала(ов)
Расположение каналов : Front: L C R, Side: L R, LFE
Частота : 48,0 КГц
Битовая глубина : 16 бит
Метод сжатия : С потерями
Размер потока : 121 Мбайт (5%)
Язык : Russian



Режиссер:
Борис Степанцев, Евгений Райковский

Малыш и Карлсон /Карлсон вернулся: 7832 Кбит/сек, 980*720 (4:3), в 25,000 кадр/сек, AVC (High@L4.1)
Описание: Специальный корреспондент Мурзилка отправляется на задание, цель которого — выяснить, за что поставили двойку мальчику с известной картины Фёдора Решетникова «Опять двойка». Выясняется, что двойка поставлена по географии, но мальчик не хочет признаться, что её не учил, в результате чего вместо экватора попадает на южный полюс.






MediaInfoОбщее
Уникальный идентификатор : 243438095975258621832196687582041635796 (0xB72478CC19E52AF8B9C80FDAFC727BD4)
Полное имя : E:торрентMalyshi_Karlson(1957-1970)BDRip720рOpyat.dvojka.1957.ВDRip720p.mkv
Формат : Matroska
Размер файла : 1,04 Гбайт
Продолжительность : 20 м.
Общий поток : 7387 Кбит/сек
Дата кодирования : UTC 2011-04-29 03:37:47
Программа кодирования : mkvmerge v4.7.0 ('Just Like You Imagined') built on Apr 21 2011 01:13:14
Библиотека кодирования : libebml v1.2.0 + libmatroska v1.1.0

Видео
Идентификатор : 1
Формат : AVC
Формат/Информация : Advanced Video Codec
Профиль формата : High@L4.1
Параметр CABAC формата : Да
Параметр ReFrames формата : 8 кадры
Идентификатор кодека : V_MPEG4/ISO/AVC
Продолжительность : 20 м.
Битрейт : 6934 Кбит/сек
Ширина : 978 пикс.
Высота : 720 пикс.
Соотношение сторон : 4:3
Частота кадров : 25,000 кадр/сек
Цветовое пространство : YUV
Подвыборка цветности : 4:2:0
Битовая глубина : 8 бит
Тип развёртки : Прогрессивная
Бит/(Пиксели*Кадры) : 0.394
Размер потока : 981 Мбайт (92%)
Библиотека кодирования : x264 core 114 r1924 08d04a4
Настройки программы : cabac=1 / ref=8 / deblock=1:1:1 / analyse=0x3:0x133 / me=umh / subme=7 / psy=1 / psy_rd=0.40:0.00 / mixed_ref=1 / me_range=32 / chroma_me=1 / trellis=2 / 8x8dct=1 / cqm=0 / deadzone=21,11 / fast_pskip=0 / chroma_qp_offset=-2 / threads=6 / sliced_threads=0 / nr=0 / decimate=1 / interlaced=0 / constrained_intra=0 / bframes=5 / b_pyramid=2 / b_adapt=1 / b_bias=0 / direct=1 / weightb=1 / open_gop=0 / weightp=2 / keyint=250 / keyint_min=24 / scenecut=40 / intra_refresh=0 / rc_lookahead=50 / rc=2pass / mbtree=1 / bitrate=6934 / ratetol=1.0 / qcomp=0.60 / qpmin=0 / qpmax=69 / qpstep=4 / cplxblur=20.0 / qblur=0.5 / ip_ratio=1.40 / aq=1:0.60
Язык : English

Аудио
Идентификатор : 2
Формат : AC-3
Формат/Информация : Audio Coding 3
Расширение режима : CM (complete main)
Идентификатор кодека : A_AC3
Продолжительность : 20 м.
Вид битрейта : Постоянный
Битрейт : 448 Кбит/сек
Канал(ы) : 6 канала(ов)
Расположение каналов : Front: L C R, Side: L R, LFE
Частота : 48,0 КГц
Битовая глубина : 16 бит
Метод сжатия : С потерями
Размер потока : 64,7 Мбайт (6%)
Язык : Russian

В ролях: Клара Румянова, Василий Ливанов, Фаина Раневская

В ролях: Клара Румянова, Василий Ливанов

Видео:
Название: Петя и Красная Шапочка

Название: Карлсон вернулся

Жанр: мультфильм, комедия, семейный
Опять двойка: 6934 Кбит/сек, 978*720 (4:3), в 25,000 кадр/сек, AVC (High@L4.1)
Страна: СССР
Описание: Всем известная история Малыша, который очень хотел собаку, и его друга, Карлсона, который живет на крыше.


Продолжительность: 00:37:48, 00:18:30, 00:20:11
Формат видео: MKV
Качество видео: BDRip 720p
Аудиокодек:AC3
Малыш и Карлсон|Карлсон вернулся|Петя и Красная Шапочка|Опять двойка


Перевод: Не требуетсяАудио: русский, 48 kHz, AC-3, 5.1 ch, 448 kbps




Петя и Красная Шапочка: 6317 Кбит/сек, 980*720 (4:3), в 25,000 кадр/сек, AVC (High@L4.1)
Описание: По мотивам сказки Шарля Перро — современная версия, в которой Пионер Петя помогает героям старой сказки победить Волка.




MediaInfo
Общее
Уникальный идентификатор : 249045279257087792890759858519492899965 (0xBB5C6046F8E5B7B3BD4ABB8D3D95B47D)
Полное имя : E:торрентMalyshi_Karlson(1957-1970)BDRip720рPetya.i.Krasnaya.Shapochka.1958.BDRip.720p.mkv
Формат : Matroska
Размер файла : 896 Мбайт
Продолжительность : 18 м.
Общий поток : 6771 Кбит/сек
Дата кодирования : UTC 2011-04-28 20:36:59
Программа кодирования : mkvmerge v4.7.0 ('Just Like You Imagined') built on Apr 21 2011 01:13:14
Библиотека кодирования : libebml v1.2.0 + libmatroska v1.1.0

Видео
Идентификатор : 1
Формат : AVC
Формат/Информация : Advanced Video Codec
Профиль формата : High@L4.1
Параметр CABAC формата : Да
Параметр ReFrames формата : 8 кадры
Идентификатор кодека : V_MPEG4/ISO/AVC
Продолжительность : 18 м.
Битрейт : 6317 Кбит/сек
Ширина : 980 пикс.
Высота : 720 пикс.
Соотношение сторон : 4:3
Частота кадров : 25,000 кадр/сек
Цветовое пространство : YUV
Подвыборка цветности : 4:2:0
Битовая глубина : 8 бит
Тип развёртки : Прогрессивная
Бит/(Пиксели*Кадры) : 0.358
Размер потока : 819 Мбайт (91%)
Библиотека кодирования : x264 core 114 r1924 08d04a4
Настройки программы : cabac=1 / ref=8 / deblock=1:1:1 / analyse=0x3:0x133 / me=umh / subme=7 / psy=1 / psy_rd=0.40:0.00 / mixed_ref=1 / me_range=32 / chroma_me=1 / trellis=2 / 8x8dct=1 / cqm=0 / deadzone=21,11 / fast_pskip=0 / chroma_qp_offset=-2 / threads=6 / sliced_threads=0 / nr=0 / decimate=1 / interlaced=0 / constrained_intra=0 / bframes=5 / b_pyramid=2 / b_adapt=1 / b_bias=0 / direct=1 / weightb=1 / open_gop=0 / weightp=2 / keyint=250 / keyint_min=24 / scenecut=40 / intra_refresh=0 / rc_lookahead=50 / rc=2pass / mbtree=1 / bitrate=6317 / ratetol=1.0 / qcomp=0.60 / qpmin=0 / qpmax=69 / qpstep=4 / cplxblur=20.0 / qblur=0.5 / ip_ratio=1.40 / aq=1:0.60
Язык : English

Аудио
Идентификатор : 2
Формат : AC-3
Формат/Информация : Audio Coding 3
Расширение режима : CM (complete main)
Идентификатор кодека : A_AC3
Продолжительность : 18 м.
Вид битрейта : Постоянный
Битрейт : 448 Кбит/сек
Канал(ы) : 6 канала(ов)
Расположение каналов : Front: L C R, Side: L R, LFE
Частота : 48,0 КГц
Битовая глубина : 16 бит
Метод сжатия : С потерями
Размер потока : 59,3 Мбайт (7%)
Язык : Russian

Релиз от: ЗалилНазвание: Опять двойка

Год выпуска: 1968, 1970, 1958, 1957

Если у вас возникли проблемы с закачкой Малыш и Карлсон, Карлсон вернулся, Петя и Красная Шапочка, Опять двойка (1970) BDRip 720p от FREEISLAND, перейдите по ссылке - там вы найдете решение своей проблемы.

Категория: Мультипликация

 

Скачать Малыш и Карлсон, Карлсон вернулся, Петя и Красная Шапочка, Опять двойка (1970) BDRip 720p от FREEISLAND бесплатно без регистрации

 

Информация
Посетители, находящиеся в группе Гости, не могут оставлять комментарии к данной публикации.
 
 
Скачать Малыш и Карлсон, Карлсон вернулся, Петя и Красная Шапочка, Опять двойка (1970) BDRip 720p от FREEISLAND бесплатно без регистрацииCopyright © 2019 .