Скачать Последний дом слева / The Last House on the Left (2009) BDRip-AVC | А | UNRATED бесплатно без регистрации





Михаилу Яроцкому (kyberpunk) за отличный перевод, а так же огромный респект за дорожку с эксклюзивным переводом:Формат видео: MKV
Видео: 1024x576 (1,85:1), 23,976 fps, ~2343 kbps avg, 0.166 bit/pixel
Перевод: Одноголосый закадровый -Страна: США
«Смерть еще нужно заслужить»

Последний дом слева / The Last House on the Left

В ролях: Гаррет Диллахант, Майкл Боуэн, Джошуа Кокс, Рики Линдхоум, Аарон Пол, Сара Пэкстон, Моника Поттер, Тони Голдуин, Марта МакАйсак, Спенсер Трит Клар и др.


Как обычно, летом, семейство поехало в летний дом на берегу озера Коллинвуд. Мэри, выпросив у родителей машину, отправляется на ней в магазин, в гости к работающей там подруге, где знакомится с молодым человеком. И уже втроём, они пытались оттянуться с косячком и просто поближе познакомиться. Но не тут то было, в номере отеля где они отдыхали, неожиданно появляется отец парнишки - беглый преступник со своей шайкой...



Файл:
Автор: mihaildns

Доп. информация:Большое спасибо,Михаил Яроцкий (kyberpunk)
Аудио: AC3, 2 ch, 192 kbps, 48 kHz - Rus
Жанр: Триллер, драма, криминал, ужасы
Аудио 2: AC3, 2 ch, 192 kbps, 48 kHz - Eng

mihey10 без его щедрости может никогда не было бы на трекере этого релиза. MediaInfoФормат : Matroska
Версия формата : Version 2
Размер файла : 2,16 Гбайт
Продолжительность : 1 ч. 53 м.
Общий поток : 2720 Кбит/сек
Дата кодирования : UTC 2013-03-25 01:45:18
Программа кодирования : mkvmerge v3.0.0 ('Hang up your Hang-Ups') built on Dec 12 2009 15:20:35
Библиотека кодирования : libebml v0.7.9 + libmatroska v0.8.1

Видео
Идентификатор : 1
Формат : AVC
Формат/Информация : Advanced Video Codec
Профиль формата : High@L5.0
Параметр CABAC формата : Да
Параметр ReFrames формата : 3 кадра
Идентификатор кодека : V_MPEG4/ISO/AVC
Продолжительность : 1 ч. 53 м.
Битрейт : 2343 Кбит/сек
Ширина : 1024 пикселя
Высота : 576 пикселей
Соотношение сторон : 1,85:1
Режим частоты кадров : Постоянный
Частота кадров : 23,976 кадра/сек
Цветовое пространство : YUV
Субдискретизация насыщенности : 4:2:0
Битовая глубина : 8 бит
Тип развёртки : Прогрессивная
Бит/(Пиксели*Кадры) : 0.166
Размер потока : 1,81 Гбайт (84%)
Библиотека кодирования : x264 core 86 r1442M 781d300
Настройки программы : cabac=1 / ref=3 / deblock=1:0:0 / analyse=0x3:0x133 / me=hex / subme=7 / psy=1 / psy_rd=1.00:0.00 / mixed_ref=1 / me_range=16 / chroma_me=1 / trellis=1 / 8x8dct=1 / cqm=0 / deadzone=21,11 / fast_pskip=1 / chroma_qp_offset=-2 / threads=4 / sliced_threads=0 / nr=0 / decimate=1 / interlaced=0 / constrained_intra=0 / bframes=3 / b_pyramid=1 / b_adapt=2 / b_bias=0 / direct=3 / wpredb=1 / wpredp=2 / keyint=230 / keyint_min=23 / scenecut=40 / intra_refresh=0 / rc_lookahead=40 / rc=abr / mbtree=1 / bitrate=2343 / ratetol=0.2 / qcomp=0.60 / qpmin=10 / qpmax=51 / qpstep=4 / ip_ratio=1.41 / aq=1:1.00 / pulldown=0
Язык : English
Default : Да
Forced : Нет

Аудио #1
Идентификатор : 2
Формат : AC-3
Формат/Информация : Audio Coding 3
Расширение режима : CM (complete main)
Параметр Endianness формата : Big
Идентификатор кодека : A_AC3
Продолжительность : 1 ч. 53 м.
Вид битрейта : Постоянный
Битрейт : 192 Кбит/сек
Каналы : 2 канала
Расположение каналов : Front: L R
Частота : 48,0 КГц
Битовая глубина : 16 бит
Метод сжатия : С потерями
Размер потока : 156 Мбайт (7%)
Default : Да
Forced : Нет

Аудио #2
Идентификатор : 3
Формат : AC-3
Формат/Информация : Audio Coding 3
Расширение режима : CM (complete main)
Параметр Endianness формата : Big
Идентификатор кодека : A_AC3
Продолжительность : 1 ч. 53 м.
Вид битрейта : Постоянный
Битрейт : 192 Кбит/сек
Каналы : 2 канала
Расположение каналов : Front: L R
Частота : 48,0 КГц
Битовая глубина : 16 бит
Метод сжатия : С потерями
Размер потока : 156 Мбайт (7%)
Default : Нет
Forced : Нет
ЗалилКачество видео: BDRip-AVC, [Blu-Ray Remux 1080p]
Евг78 Оценка10 из 10 (1 голосов, самая низкая оценка - 10, самая высокая - 10) КатегорияЗарубежные фильмы Раздают0 Качают0 Сидер замечен28-05-2019 9:19:11 (13 дня назад) Добавлен25-03-2013 7:58:21 (76 месяцев назад) Размер2.16 GB (2318191370 Bytes)Продолжительность: 01:53:37

Cубтитры: нет
Режиссер: Дэннис Илиадис / Dennis Iliadis

Год выпуска: 2009
Оригинальная аудиодорожка: английский

Если у вас возникли проблемы с закачкой Последний дом слева / The Last House on the Left (2009) BDRip-AVC | А | UNRATED, перейдите по ссылке - там вы найдете решение своей проблемы.

Категория: Зарубежные фильмы

 

Скачать Последний дом слева / The Last House on the Left (2009) BDRip-AVC | А | UNRATED бесплатно без регистрации

 

Информация
Посетители, находящиеся в группе Гости, не могут оставлять комментарии к данной публикации.
 
 
Скачать Последний дом слева / The Last House on the Left (2009) BDRip-AVC | А | UNRATED бесплатно без регистрацииCopyright © 2019 .