Скачать Дракула / Dracula (1979) BDRip 720p by msltel | D бесплатно без регистрации






Продолжительность: 01:49:04
Оригинальное название: Dracula
Жанр: Ужасы, мелодрама
Выпущено: США, Великобритания, The Mirisch Corporation, Universal Pictures
Год выпуска: 1979
О фильме: Граф Дракула переезжает из Трансильвании в Англию. Его корабль терпит крушение, и команда гибнет. Сам Дракула, единственный оставшийся в живых, найден хозяином находящейся неподалёку психиатрической больницы. Там графа встречают как почётного гостя. С его появлением вокруг начинают происходить страшные события...

Перевод: Дублированный
Качество: BDRip 720p
Сатурн, 1980 год
Победитель (1):
Лучший фильм ужасов

Номинации (4):
Лучший режиссер (Джон Бэдэм)
Лучший актер (Фрэнк Ланджелла)
Лучший актер второго плана (Дональд Плезенс)
Лучший гримMediaInfo + Лог х264Общее
Уникальный идентификатор : 219017828544929949881126340913791985464 (0xA4C54CA7C495255AB5F694ECDE6F6738)
Полное имя : D:VideoDracula.1979.BDRip.720p.mkv
Формат : Matroska
Версия формата : Version 4 / Version 2
Размер файла : 3,87 Гбайт
Продолжительность : 1 ч. 49 м.
Общий поток : 5080 Кбит/сек
Дата кодирования : UTC 2014-09-05 01:50:40
Программа кодирования : mkvmerge v6.9.1 ('Blue Panther') 64bit built on Apr 18 2014 18:23:38
Библиотека кодирования : libebml v1.3.0 + libmatroska v1.4.1

Видео
Идентификатор : 1
Формат : AVC
Формат/Информация : Advanced Video Codec
Профиль формата : High@L4.1
Параметр CABAC формата : Да
Параметр ReFrames формата : 9 кадров
Идентификатор кодека : V_MPEG4/ISO/AVC
Продолжительность : 1 ч. 49 м.
Битрейт : 4595 Кбит/сек
Ширина : 1280 пикселей
Высота : 544 пикселя
Соотношение сторон : 2,35:1
Режим частоты кадров : Постоянный
Частота кадров : 23,976 кадра/сек
Цветовое пространство : YUV
Субдискретизация насыщенности : 4:2:0
Битовая глубина : 8 бит
Тип развёртки : Прогрессивная
Бит/(Пиксели*Кадры) : 0.275
Размер потока : 3,50 Гбайт (90%)
Заголовок : BDRip -- STarankov
Библиотека кодирования : x264 core 142 r2431 ac76440
Настройки программы : cabac=1 / ref=9 / deblock=1:-1:-1 / analyse=0x3:0x113 / me=umh / subme=10 / psy=1 / psy_rd=1.00:0.15 / mixed_ref=1 / me_range=32 / chroma_me=1 / trellis=2 / 8x8dct=1 / cqm=0 / deadzone=21,11 / fast_pskip=0 / chroma_qp_offset=-3 / threads=6 / lookahead_threads=1 / sliced_threads=0 / nr=0 / decimate=1 / interlaced=0 / bluray_compat=0 / constrained_intra=0 / bframes=8 / b_pyramid=2 / b_adapt=2 / b_bias=0 / direct=1 / weightb=1 / open_gop=0 / weightp=2 / keyint=230 / keyint_min=23 / scenecut=40 / intra_refresh=0 / rc_lookahead=40 / rc=crf / mbtree=0 / crf=18.5 / qcomp=0.60 / qpmin=0 / qpmax=69 / qpstep=4 / vbv_maxrate=40000 / vbv_bufsize=50000 / crf_max=0.0 / nal_hrd=none / filler=0 / ip_ratio=1.40 / pb_ratio=1.30 / aq=1:1.00
Язык : English
Default : Да
Forced : Нет

Аудио #1
Идентификатор : 2
Формат : AC-3
Формат/Информация : Audio Coding 3
Расширение режима : CM (complete main)
Параметр Endianness формата : Big
Идентификатор кодека : A_AC3
Продолжительность : 1 ч. 49 м.
Вид битрейта : Постоянный
Битрейт : 192 Кбит/сек
Каналы : 2 канала
Расположение каналов : Front: L R
Частота : 48,0 КГц
Битовая глубина : 16 бит
Метод сжатия : С потерями
Размер потока : 150 Мбайт (4%)
Заголовок : DUB
Язык : Russian
Default : Да
Forced : Нет

Аудио #2
Идентификатор : 3
Формат : AC-3
Формат/Информация : Audio Coding 3
Расширение режима : CM (complete main)
Параметр Endianness формата : Big
Идентификатор кодека : A_AC3
Продолжительность : 1 ч. 49 м.
Вид битрейта : Постоянный
Битрейт : 192 Кбит/сек
Каналы : 2 канала
Расположение каналов : Front: L R
Частота : 48,0 КГц
Битовая глубина : 16 бит
Метод сжатия : С потерями
Размер потока : 150 Мбайт (4%)
Заголовок : Original
Язык : English
Default : Нет
Forced : Нет

Текст #1
Идентификатор : 4
Формат : UTF-8
Идентификатор кодека : S_TEXT/UTF8
Идентификатор кодека/Информация : UTF-8 Plain Text
Заголовок : русский
Язык : Russian
Default : Нет
Forced : Нет

Текст #2
Идентификатор : 5
Формат : UTF-8
Идентификатор кодека : S_TEXT/UTF8
Идентификатор кодека/Информация : UTF-8 Plain Text
Заголовок : английский (для слабослышащих)
Default : Нет
Forced : Нет

---[Information] [04.09.2014 21:14:42] raw [info]: 1280x544p 1:1 @ 24000/1001 fps (cfr)
---[Information] [04.09.2014 21:14:42] x264 [info]: using SAR=1/1
---[Information] [04.09.2014 21:14:42] x264 [info]: using cpu capabilities: MMX2 SSE2Fast SSSE3 SSE4.2
---[Information] [04.09.2014 21:14:42] x264 [info]: profile High, level 4.1
---[Information] [05.09.2014 3:53:25] x264 [info]: frame I:1106 Avg QP:15.84 size: 87413
---[Information] [05.09.2014 3:53:25] x264 [info]: frame P:28410 Avg QP:16.92 size: 43198
---[Information] [05.09.2014 3:53:25] x264 [info]: frame B:127399 Avg QP:19.05 size: 19747
---[Information] [05.09.2014 3:53:25] x264 [info]: consecutive B-frames: 1.1% 0.7% 2.7% 8.0% 13.6% 56.5% 9.5% 3.9% 4.0%
---[Information] [05.09.2014 3:53:25] x264 [info]: mb I I16..4: 13.7% 76.2% 10.1%
---[Information] [05.09.2014 3:53:25] x264 [info]: mb P I16..4: 1.4% 23.3% 1.3% P16..4: 30.3% 26.9% 14.8% 0.0% 0.0% skip: 2.0%
---[Information] [05.09.2014 3:53:25] x264 [info]: mb B I16..4: 0.3% 4.2% 0.1% B16..8: 42.5% 15.1% 4.1% direct: 8.0% skip:25.8% L0:47.3% L1:44.0% BI: 8.8%
---[Information] [05.09.2014 3:53:25] x264 [info]: 8x8 transform intra:89.7% inter:51.5%
---[Information] [05.09.2014 3:53:25] x264 [info]: coded y,uvDC,uvAC intra: 94.9% 61.2% 35.7% inter: 40.0% 13.1% 1.0%
---[Information] [05.09.2014 3:53:25] x264 [info]: i16 v,h,dc,p: 59% 2% 20% 19%
---[Information] [05.09.2014 3:53:25] x264 [info]: i8 v,h,dc,ddl,ddr,vr,hd,vl,hu: 8% 7% 18% 10% 13% 11% 11% 10% 13%
---[Information] [05.09.2014 3:53:25] x264 [info]: i4 v,h,dc,ddl,ddr,vr,hd,vl,hu: 8% 5% 4% 10% 17% 15% 15% 13% 13%
---[Information] [05.09.2014 3:53:25] x264 [info]: i8c dc,h,v,p: 38% 35% 18% 9%
---[Information] [05.09.2014 3:53:25] x264 [info]: Weighted P-Frames: Y:10.4% UV:1.9%
---[Information] [05.09.2014 3:53:25] x264 [info]: ref P L0: 38.2% 9.6% 20.8% 7.9% 7.6% 4.9% 5.1% 2.6% 2.9% 0.4% 0.0%
---[Information] [05.09.2014 3:53:25] x264 [info]: ref B L0: 62.5% 15.6% 8.3% 4.9% 3.5% 3.1% 1.6% 0.5%
---[Information] [05.09.2014 3:53:25] x264 [info]: ref B L1: 90.0% 10.0%
---[Information] [05.09.2014 3:53:25] x264 [info]: kb/s:4693.59
---[Information] [05.09.2014 3:53:25] encoded 156915 frames, 6.56 fps, 4693.59 kb/s
--[Information] [05.09.2014 3:53:26] Final statistics
---[Information] [05.09.2014 3:53:26] Constant Quality Mode: Quality 18 computed...
---[Information] [05.09.2014 3:53:26] Video Bitrate Obtained (approximate): 4695 kbit/s
--[Information] [05.09.2014 3:53:26] MediaInfo
---[Information] [05.09.2014 3:53:26] File: D:RipDracula.1979.BDRipDracula.1979.BDRip.720p.mkvСкриншоты
ЗалилВидео: MPEG-4 AVC, 4595 Кбит/с, 1280x544
Размер: 3.87 ГБ
Аудио: Русский, английский (AC3, 2 ch, 192 Кбит/с)
Режиссер: Джон Бэдэм
Название: Дракула
Субтитры: Русские, английские (для слабослышащих)

Исходник | Сравнение с исходником



Наградыmsltel Оценка10 из 10 (2 голосов, самая низкая оценка - 10, самая высокая - 10) КатегорияЗарубежные фильмы Раздают0 Качают2 Сидер замечен21-10-2017 17:19:07 (20 месяцев назад) Добавлен07-09-2014 13:26:02 (58 месяцев назад) Размер3.87 GB (4155747846 Bytes)В ролях: Фрэнк Ланджелла, Лоуренс Оливье, Дональд Плезенс, Тревор Ив, Кейт Неллиган, Жан Френсис, Джанин Дувицкий, Тони Хейгарт, Тедди Тернер, Сильвестр МакКой

Если у вас возникли проблемы с закачкой Дракула / Dracula (1979) BDRip 720p by msltel | D, перейдите по ссылке - там вы найдете решение своей проблемы.

Категория: Зарубежные фильмы

 

Скачать Дракула / Dracula (1979) BDRip 720p by msltel | D бесплатно без регистрации

 

Информация
Посетители, находящиеся в группе Гости, не могут оставлять комментарии к данной публикации.
 
 
Скачать Дракула / Dracula (1979) BDRip 720p by msltel | D бесплатно без регистрацииCopyright © 2019 .