Скачать Ледяной урожай / The Ice Harvest (2005) HDTV 720p от FreeRutor | D, A бесплатно без регистрации






Информация о фильме
Жанр: Триллер, драма, комедия, криминал
О фильме:
В канун Рождества один ловкач пытается «выставить на деньги» мафию. При этом он заручается помощью владелицы стрип-бара и юриста, работающего на мафию. Последний, к слову сказать, даже не подозревает, что его используют в двойной игре и просто надеялся мирно встретить праздник. Однако сочельник оказывается полон сюрпризов...




Аудио 1: Русский (AC3, 6 ch, 448 Кбит/с) ДублированныйСемпл

MI
Общее
Уникальный идентификатор : 243406763369355151787329012754121822163 (0xB71E6FFB03F50D8A859689E6A3CD0FD3)
Полное имя : E:Раздача-BDRipLedyanoyi_Urozhayi.2005.HDTV 720p_FreeRutor.mkv
Формат : Matroska
Версия формата : Version 2
Размер файла : 3,81 Гбайт
Продолжительность : 1 ч. 24 м.
Режим общего битрейта : Переменный
Общий поток : 6472 Кбит/сек
Название фильма : The Ice Harvest (2005) HDTV 720p _FreeRutor_grab777
Дата кодирования : UTC 2017-02-18 21:07:37
Программа кодирования : mkvmerge v5.8.0 ('No Sleep / Pillow') built on Sep 2 2012 15:37:04
Библиотека кодирования : libebml v1.2.3 + libmatroska v1.3.0

Видео
Идентификатор : 1
Формат : AVC
Формат/Информация : Advanced Video Codec
Профиль формата : Main@L4.0
Параметр CABAC формата : Да
Параметр ReFrames формата : 2 кадра
Параметр GOP формата : M=3, N=30
Идентификатор кодека : V_MPEG4/ISO/AVC
Вид битрейта : Переменный
Битрейт : 4999 Кбит/сек
Максимальный битрейт : 12,4 Мбит/сек
Ширина : 1280 пикселей
Высота : 720 пикселей
Соотношение сторон : 16:9
Режим частоты кадров : Переменный
Частота кадров в оригинале : 50,000 кадров/сек
Цветовое пространство : YUV
Субдискретизация насыщенности : 4:2:0
Битовая глубина : 8 бит
Тип развёртки : Прогрессивная
Заголовок : by_grab777
Default : Да
Forced : Нет
Основные цвета : BT.709
Характеристики трансфера : BT.709
Коэффициенты матрицы : BT.709

Аудио #1
Идентификатор : 2
Формат : AC-3
Формат/Информация : Audio Coding 3
Расширение режима : CM (complete main)
Параметр Endianness формата : Big
Идентификатор кодека : A_AC3
Продолжительность : 1 ч. 24 м.
Вид битрейта : Постоянный
Битрейт : 448 Кбит/сек
Каналы : 6 каналов
Расположение каналов : Front: L C R, Side: L R, LFE
Частота : 48,0 КГц
Битовая глубина : 16 бит
Метод сжатия : С потерями
Задержка видео : 8 мс.
Размер потока : 270 Мбайт (7%)
Заголовок : DUB (R5)
Язык : Russian
Default : Да
Forced : Нет

Аудио #2
Идентификатор : 3
Формат : AC-3
Формат/Информация : Audio Coding 3
Расширение режима : CM (complete main)
Параметр Endianness формата : Big
Идентификатор кодека : A_AC3
Продолжительность : 1 ч. 24 м.
Вид битрейта : Постоянный
Битрейт : 448 Кбит/сек
Каналы : 6 каналов
Расположение каналов : Front: L C R, Side: L R, LFE
Частота : 48,0 КГц
Битовая глубина : 16 бит
Метод сжатия : С потерями
Размер потока : 270 Мбайт (7%)
Заголовок : AVO (М. Чадов)
Язык : Russian
Default : Нет
Forced : Нет

Аудио #3
Идентификатор : 4
Формат : AC-3
Формат/Информация : Audio Coding 3
Расширение режима : CM (complete main)
Параметр Endianness формата : Big
Идентификатор кодека : A_AC3
Продолжительность : 1 ч. 24 м.
Вид битрейта : Постоянный
Битрейт : 448 Кбит/сек
Каналы : 6 каналов
Расположение каналов : Front: L C R, Side: L R, LFE
Частота : 48,0 КГц
Битовая глубина : 16 бит
Метод сжатия : С потерями
Размер потока : 270 Мбайт (7%)
Заголовок : Original
Язык : English
Default : Нет
Forced : Нет

Текст #1
Идентификатор : 5
Формат : UTF-8
Идентификатор кодека : S_TEXT/UTF8
Идентификатор кодека/Информация : UTF-8 Plain Text
Язык : Russian
Default : Нет
Forced : Нет

Текст #2
Идентификатор : 6
Формат : UTF-8
Идентификатор кодека : S_TEXT/UTF8
Идентификатор кодека/Информация : UTF-8 Plain Text
Язык : English
Default : Нет
Forced : Нет

Меню
00:00:00.000 : :Глава 1
00:05:11.260 : :Глава 2
00:07:58.860 : :Глава 3
00:13:11.359 : :Глава 4
00:18:08.598 : :Глава 5
00:25:38.360 : :Глава 6
00:29:30.010 : :Глава 7
00:32:52.759 : :Глава 8
00:37:15.365 : :Глава 9
00:42:11.460 : :Глава 10 Интересно
• Фильм снят по мотивам романа Скотта Филлипса «Ледяной урожай» (The Ice Harvest, 2000).Скриншоты


Качество: HDTV 720p
Релиз от: ЗалилПродолжительность: 01:24:16
Оригинальное название: The Ice Harvest
Аудио 2: Русский (AC3, 6 ch, 448 Кбит/с) АвторскийВыпущено: США / Focus Features, Bona Fide Productions
(М. Чадов)
Формат: MKV
Видео: MPEG-4 AVC, 4999 Кбит/с, 1280x720
grab777 ОценкаНикто ещё не поставил оценку КатегорияЗарубежные фильмы Раздают1 Качают0 Сидер замечен09-06-2019 20:19:13 (4 минуты назад) Добавлен19-02-2017 7:23:38 (28 месяцев назад) Размер3.81 GB (4090659077 Bytes)В ролях: Джон Кьюсак, Билли Боб Торнтон, Конни Нильсен, Оливер Платт, Рэнди Куэйд, Майк Старр, Нед Беллами, Т. Дж. Ягодовски, Дэвид Паскуэзи, Лара Филлипс

Официальный сайт

Субтитры: Русские, английские

Режиссер: Харольд Рэмис
Название: Ледяной урожай
Аудио 3: Английский (AC3, 6 ch, 448 Кбит/с) Оригинал
Перевод: Дублированный, авторский

Год выхода: 2005
(R5)

Если у вас возникли проблемы с закачкой Ледяной урожай / The Ice Harvest (2005) HDTV 720p от FreeRutor | D, A, перейдите по ссылке - там вы найдете решение своей проблемы.

Категория: Зарубежные фильмы

 

Скачать Ледяной урожай / The Ice Harvest (2005) HDTV 720p от FreeRutor | D, A бесплатно без регистрации

 

Информация
Посетители, находящиеся в группе Гости, не могут оставлять комментарии к данной публикации.
 
 
Скачать Ледяной урожай / The Ice Harvest (2005) HDTV 720p от FreeRutor | D, A бесплатно без регистрацииCopyright © 2019 .