Скачать Делай ноги 2 / Happy Feet Two (2011) BDRip 1080p от DHT-Movies | Лицензия бесплатно без регистрации




«Раз, два, три... Антарктида, жги!»


Оригинальное название: Happy Feet Two
avt83 ОценкаНикто ещё не поставил оценку КатегорияМультипликация Раздают1 Качают0 Сидер замечен07-06-2019 19:19:10 (2 дня назад) Добавлен31-03-2012 12:47:56 (88 месяцев назад) Размер8.21 GB (8813940122 Bytes)
x264 log

x264 [info]: frame I:1012 Avg QP:13.91 size:249549
x264 [info]: frame P:42658 Avg QP:17.93 size: 94169
x264 [info]: frame B:99467 Avg QP:21.49 size: 37506
x264 [info]: consecutive B-frames: 5.7% 7.4% 10.6% 55.8% 7.8% 10.3% 1.3% 1.1% 0.0%
x264 [info]: mb I I16..4: 6.8% 61.4% 31.7%
x264 [info]: mb P I16..4: 2.2% 18.6% 4.3% P16..4: 25.4% 28.7% 9.3% 5.2% 0.7% skip: 5.5%
x264 [info]: mb B I16..4: 0.3% 3.9% 1.1% B16..8: 36.8% 20.0% 3.6% direct: 5.4% skip:28.8% L0:41.3% L1:42.2% BI:16.5%
x264 [info]: 8x8 transform intra:72.9% inter:44.1%
x264 [info]: direct mvs spatial:93.8% temporal:6.2%
x264 [info]: coded y,uvDC,uvAC intra: 85.6% 77.7% 51.4% inter: 31.9% 22.1% 11.0%
x264 [info]: i16 v,h,dc,p: 24% 14% 6% 56%
x264 [info]: i8 v,h,dc,ddl,ddr,vr,hd,vl,hu: 8% 10% 7% 9% 12% 11% 13% 12% 16%
x264 [info]: i4 v,h,dc,ddl,ddr,vr,hd,vl,hu: 10% 10% 9% 7% 13% 12% 13% 10% 14%
x264 [info]: i8c dc,h,v,p: 34% 29% 18% 19%
x264 [info]: Weighted P-Frames: Y:1.7% UV:0.7%
x264 [info]: ref P L0: 61.5% 13.0% 14.3% 5.8% 4.7% 0.6% 0.0%
x264 [info]: ref B L0: 88.7% 7.8% 2.7% 0.8%
x264 [info]: ref B L1: 96.0% 4.0%
x264 [info]: kb/s:10720.57

x264 [total]: encoded 143137 frames, 0.81 fps, 10720.57 kb/s
HD ТрейлерMI

Format : Matroska
File size : 8.21 GiB
Duration : 1h 39mn
Overall bit rate : 11.8 Mbps
Encoded date : UTC 2012-03-31 08:51:04
Writing application : mkvmerge v4.0.0 ('The Stars were mine') built on Jun 6 2010 16:18:42
Writing library : libebml v1.0.0 + libmatroska v1.0.0
Video #1
ID : 1
Format : AVC
Format/Info : Advanced Video Codec
Format profile : High@L4.1
Format settings, CABAC : Yes
Format settings, ReFrames : 5 frames
Muxing mode : Container profile=Unknown@4.1
Codec ID : V_MPEG4/ISO/AVC
Duration : 1h 39mn
Bit rate : 10.5 Mbps
Nominal bit rate : 10.7 Mbps
Width : 1 920 pixels
Height : 816 pixels
Display aspect ratio : 2.35:1
Frame rate : 23.976 fps
Resolution : 24 bits
Colorimetry : 4:2:0
Scan type : Progressive
Bits/(Pixel*Frame) : 0.279
Stream size : 7.28 GiB (89%)
Writing library : x264 core 119 r2106 07efeb4
Encoding settings : cabac=1 / ref=5 / deblock=1:-1:-1 / analyse=0x3:0x133 / me=umh / subme=11 / psy=1 / psy_rd=0.90:0.00 / mixed_ref=1 / me_range=32 / chroma_me=1 / trellis=2 / 8x8dct=1 / cqm=0 / deadzone=21,11 / fast_pskip=0 / chroma_qp_offset=-2 / threads=6 / sliced_threads=0 / nr=0 / decimate=0 / interlaced=0 / bluray_compat=0 / constrained_intra=0 / bframes=8 / b_pyramid=2 / b_adapt=2 / b_bias=0 / direct=3 / weightb=1 / open_gop=0 / weightp=2 / keyint=240 / keyint_min=23 / scenecut=40 / intra_refresh=0 / rc_lookahead=40 / rc=2pass / mbtree=1 / bitrate=10722 / ratetol=1.0 / qcomp=0.60 / qpmin=0 / qpmax=69 / qpstep=4 / cplxblur=20.0 / qblur=0.5 / ip_ratio=1.40 / aq=1:1.00
Audio #2
ID : 2
Format : AC-3
Format/Info : Audio Coding 3
Codec ID : A_AC3
Duration : 1h 39mn
Bit rate mode : Constant
Bit rate : 640 Kbps
Channel(s) : 6 channels
Channel positions : Front: L C R, Surround: L R, LFE
Sampling rate : 48.0 KHz
Stream size : 456 MiB (5%)
Title : Дубляж
Language : Russian
Audio #3
ID : 3
Format : AC-3
Format/Info : Audio Coding 3
Codec ID : A_AC3
Duration : 1h 39mn
Bit rate mode : Constant
Bit rate : 448 Kbps
Channel(s) : 6 channels
Channel positions : Front: L C R, Surround: L R, LFE
Sampling rate : 48.0 KHz
Stream size : 319 MiB (4%)
Title : ОригиналСкриншоты

ЗалилНазвание: Делай ноги 2
Качество: BDRip 1080p |Happy Feet 2 2011 Blu-Ray 1080p AVC DTS-HD MA 5.1-HDChina
Видео: 1920x816 23.976 fps 10.7 Mbps 0.285 Bits/(Pixel*Frame)
Релиз группа: |(Дубляж)
Жанр: мультфильм, комедия, семейный, музыка
by AVT83

(Оригинал)


Аудио (Английский): 48 kHz, AC3 Dolby Digital, 3/2 (L,C,R,l,r) + LFE ch, ~ 448 kbps avg |Год выхода: 2011
Продолжительность: 01:39:29
Видео кодек: H.264
Описание:

Неутомимый пингвин Мамбл, некогда покоривший своим блестящим танцорским талантом целое племя императорских пингвинов, стал отцом. Его малыш — Эрик, в точности такой же свободолюбивый и независимый, как и папа, но в своих амбициях и авантюрах, несмотря на свой юный возраст, уже способен дать хорошую фору отцу и всем окружающим.

Кумиром малыша становится Могучий Свен, — пингвин, умеющий летать. Во всём следуя и подражая ему, Эрик ни в какую не собирается учиться танцевать, вопреки планам и убеждениям Мамбла. Однако, настоящие трудности и проблемы состоят в другом, и, чтобы таковые преодолеть не без успеха, Мамблу и Эрику предстоит забыть о предрассудках и разногласиях, встав на защиту общих интересов и идеалов…

Страна: Австралия
В ролях:

Элайджа Вуд, Робин Уильямс, Хэнк Азария, Пинк, Брэд Питт, Мэтт Дэймон, София Вергара, Карлос Алазраки, Ломбардо Бойяр, Джефф Гарсиа

Формат: MKV
Аудио (Русский): 48 kHz, AC3 Dolby Digital, 3/2 (L,C,R,l,r) + LFE ch, ~ 640 kbps avg |Примечание: Российская дорожка с Blu-ray CEE 1080p AVC DD5.1 от

Перевод: Дубляж (Профессиональный)|Лицензия| + Оригинал (Английский)

Режиссер: Джордж Миллер



Если у вас возникли проблемы с закачкой Делай ноги 2 / Happy Feet Two (2011) BDRip 1080p от DHT-Movies | Лицензия, перейдите по ссылке - там вы найдете решение своей проблемы.

Категория: Мультипликация

 

Скачать Делай ноги 2 / Happy Feet Two (2011) BDRip 1080p от DHT-Movies | Лицензия бесплатно без регистрации

 

Информация
Посетители, находящиеся в группе Гости, не могут оставлять комментарии к данной публикации.
 
 
Скачать Делай ноги 2 / Happy Feet Two (2011) BDRip 1080p от DHT-Movies | Лицензия бесплатно без регистрацииCopyright © 2019 .