Скачать Хлопок одной ладони. Валентин Дудкевич (2013) DVB от AND03AND бесплатно без регистрации






Информация о фильме
Доп. информация: Запись потокаПеревод: не требует

Название: Хлопок одной ладони. Валентин Дудкевич
Студия: Белтелерадиокомпания
Bartimeyse иЖанр: Документальный
Режиссер: Надежда Горкунова

Кодек: AVC (H264)
Видео: MPEG4 Video (H264) 720(785)x576 (49:36) 25fps, 2 305 kb/s
AND03AND ОценкаНикто ещё не поставил оценку КатегорияТелевизор Раздают1 Качают0 Сидер замечен02-01-2018 14:19:06 (17 месяцев назад) Добавлен20-07-2017 17:07:21 (23 месяца назад) Размер501.46 MB (525821148 Bytes)*.ts с наземного цифрового телеканала "Беларусь 3".

Страна: Республика Беларусь
О фильме:
Без малого три десятка лет Валентин Дудкевич каждый день приезжает в Белгосфилармонию. Здесь в лабиринтах третьего этажа прописан Государственный ансамбль танца Беларуси, у руля которого Дудкевич стоит с середины 80-х. О делах ансамбля народный артист Беларуси не забывает ни на минуту. Без устали придумывает новые постановки, доводит до совершенства старые наработки. Его танцоры первыми сломали стереотип о том, что в хореографии белорусов - одни только "лявонiхi" да польки.
В репертуаре ансамбля более 60 номеров самых разных направлений. "Что такое народный танец? Это пластический портрет народа. Немая поэзия, таящая в себе часть народной души", - уверен Валентин Владимирович.

Продолжительность: 00:26:00
Благодарность: за помощь с недостающим материаломPavelDAS. Обоим большое спасибо!

Качество: DVB
Звук: MPEG Audio 48000Hz stereo 256kbps

MediaInfo
General
ID : 1 (0x1)
Complete name : D:Новая земля 201 Документальный фильмыЛичностиХлопок одной ладони. Валентин Дудкевич (2013)Хлопок одной ладони. Валентин Дудкевич (2013).ts
Format : MPEG-TS
File size : 501 MiB
Duration : 26 min
Overall bit rate mode : Variable
Overall bit rate : 2 696 kb/s

Video
ID : 801 (0x321)
Menu ID : 1 (0x1)
Format : AVC
Format/Info : Advanced Video Codec
Format profile : Main@L3
Format settings, CABAC : Yes
Format settings, ReFrames : 4 frames
Format settings, GOP : M=4, N=24
Codec ID : 27
Duration : 26 min
Bit rate : 2 305 kb/s
Width : 720 pixels
Height : 576 pixels
Display aspect ratio : 4:3
Frame rate : 25.000 FPS
Standard : PAL
Color space : YUV
Chroma subsampling : 4:2:0
Bit depth : 8 bits
Scan type : MBAFF
Scan type, store method : Interleaved fields
Scan order : Top Field First
Bits/(Pixel*Frame) : 0.222
Stream size : 429 MiB (85%)
Color range : Limited
Color primaries : BT.601 PAL
Transfer characteristics : BT.470 System B, BT.470 System G
Matrix coefficients : BT.601

Audio
ID : 802 (0x322)
Menu ID : 1 (0x1)
Format : MPEG Audio
Format version : Version 1
Format profile : Layer 2
Codec ID : 3
Duration : 25 min
Bit rate mode : Constant
Bit rate : 256 kb/s
Channel(s) : 2 channels
Sampling rate : 48.0 kHz
Compression mode : Lossy
Stream size : 47.6 MiB (9%)
Language : English

Text
ID : 868 (0x364)-800
Menu ID : 1 (0x1)
Format : Teletext Subtitle
Language : Russian
Language, more info : For hearing impaired people


Скриншоты ЗалилГод выхода: 2013

Если у вас возникли проблемы с закачкой Хлопок одной ладони. Валентин Дудкевич (2013) DVB от AND03AND, перейдите по ссылке - там вы найдете решение своей проблемы.

Категория: Телевизор

 

Скачать Хлопок одной ладони. Валентин Дудкевич (2013) DVB от AND03AND бесплатно без регистрации

 

Информация
Посетители, находящиеся в группе Гости, не могут оставлять комментарии к данной публикации.
 
 
Скачать Хлопок одной ладони. Валентин Дудкевич (2013) DVB от AND03AND бесплатно без регистрацииCopyright © 2019 .