Скачать Впусти меня. Сага / Let Me In (2010) BDRip 720p by msltel бесплатно без регистрации






Аудио 1: русский, AC3, 448 kbps, 6 ch, 48 kHz [дублированный]
Оригинальное название: Let Me In
Режиссёр: Мэтт Ривз

Формат: MKV
Качество: BDRip 720pСубтитры 2: английские

Инфо-файлОбщее
Уникальный идентификатор : 207453349595145398521208140455904887472 (0x9C120FD271B1C43C8833A306C1DD42B0)
Полное имя : D:VideoВпусти меня.2010.BDRip.720p.mkv
Формат : Matroska
Версия формата : Version 4 / Version 2
Размер файла : 4,13 Гбайт
Продолжительность : 1 ч. 55 м.
Общий поток : 5103 Кбит/сек
Название фильма : BDRip -- STarankov
Дата кодирования : UTC 2015-11-01 02:12:58
Программа кодирования : mkvmerge v8.2.0 ('World of Adventure') 64bit
Библиотека кодирования : libebml v1.3.1 + libmatroska v1.4.2
DURATION : 01:46:00.080000000
NUMBER_OF_FRAMES : 831
NUMBER_OF_BYTES : 20985
_STATISTICS_WRITING_APP : mkvmerge v8.2.0 ('World of Adventure') 64bit
_STATISTICS_WRITING_DATE_UTC : 2015-11-01 02:12:58
_STATISTICS_TAGS : BPS DURATION NUMBER_OF_FRAMES NUMBER_OF_BYTES

Видео
Идентификатор : 1
Формат : AVC
Формат/Информация : Advanced Video Codec
Профиль формата : High@L4.1
Параметр CABAC формата : Да
Параметр ReFrames формата : 9 кадров
Идентификатор кодека : V_MPEG4/ISO/AVC
Продолжительность : 1 ч. 55 м.
Битрейт : 4106 Кбит/сек
Ширина : 1280 пикселей
Высота : 534 пикселя
Соотношение сторон : 2,40:1
Режим частоты кадров : Постоянный
Частота кадров : 23,976 кадра/сек
Цветовое пространство : YUV
Субдискретизация насыщенности : 4:2:0
Битовая глубина : 8 бит
Тип развёртки : Прогрессивная
Бит/(Пиксели*Кадры) : 0.251
Размер потока : 3,32 Гбайт (80%)
Библиотека кодирования : x264 core 146 r2538 121396c
Настройки программы : cabac=1 / ref=9 / deblock=1:-1:-1 / analyse=0x3:0x113 / me=umh / subme=10 / psy=1 / psy_rd=1.00:0.15 / mixed_ref=1 / me_range=32 / chroma_me=1 / trellis=2 / 8x8dct=1 / cqm=0 / deadzone=21,11 / fast_pskip=1 / chroma_qp_offset=-3 / threads=6 / lookahead_threads=1 / sliced_threads=0 / nr=0 / decimate=1 / interlaced=0 / bluray_compat=0 / constrained_intra=0 / bframes=14 / b_pyramid=2 / b_adapt=2 / b_bias=0 / direct=1 / weightb=1 / open_gop=0 / weightp=2 / keyint=230 / keyint_min=23 / scenecut=40 / intra_refresh=0 / rc_lookahead=40 / rc=crf / mbtree=0 / crf=17.5 / qcomp=0.60 / qpmin=0 / qpmax=69 / qpstep=4 / vbv_maxrate=40000 / vbv_bufsize=50000 / crf_max=0.0 / nal_hrd=none / filler=0 / ip_ratio=1.40 / pb_ratio=1.30 / aq=1:1.00
Язык : English
Default : Да
Forced : Нет
DURATION : 01:55:47.941000000
NUMBER_OF_FRAMES : 166584
NUMBER_OF_BYTES : 3652415361
_STATISTICS_WRITING_APP : mkvmerge v8.2.0 ('World of Adventure') 64bit
_STATISTICS_WRITING_DATE_UTC : 2015-11-01 02:12:58
_STATISTICS_TAGS : BPS DURATION NUMBER_OF_FRAMES NUMBER_OF_BYTES

Аудио #1
Идентификатор : 2
Формат : AC-3
Формат/Информация : Audio Coding 3
Расширение режима : CM (complete main)
Параметр Endianness формата : Big
Идентификатор кодека : A_AC3
Продолжительность : 1 ч. 55 м.
Вид битрейта : Постоянный
Битрейт : 448 Кбит/сек
Каналы : 6 каналов
Расположение каналов : Front: L C R, Side: L R, LFE
Частота : 48,0 КГц
Метод сжатия : С потерями
Размер потока : 371 Мбайт (9%)
Заголовок : DUB
Язык : Russian
Default : Да
Forced : Нет

Аудио #2
Идентификатор : 3
Формат : AC-3
Формат/Информация : Audio Coding 3
Расширение режима : CM (complete main)
Параметр Endianness формата : Big
Идентификатор кодека : A_AC3
Продолжительность : 1 ч. 55 м.
Вид битрейта : Постоянный
Битрейт : 448 Кбит/сек
Каналы : 6 каналов
Расположение каналов : Front: L C R, Side: L R, LFE
Частота : 48,0 КГц
Метод сжатия : С потерями
Размер потока : 371 Мбайт (9%)
Заголовок : Original
Язык : English
Default : Нет
Forced : Нет

Текст #1
Идентификатор : 4
Формат : UTF-8
Идентификатор кодека : S_TEXT/UTF8
Идентификатор кодека/Информация : UTF-8 Plain Text
Заголовок : русский
Язык : Russian
Default : Нет
Forced : Нет

Текст #2
Идентификатор : 5
Формат : UTF-8
Идентификатор кодека : S_TEXT/UTF8
Идентификатор кодека/Информация : UTF-8 Plain Text
Заголовок : английский
Default : Нет
Forced : Нет


Скриншоты
ЗалилОписание: Действие фильма развивается в заснеженном пригороде Нью-Мехико, где живёт 12-летний мальчик-изгой Оуэн. Однажды в сумерках Оуэн знакомится со своей новой соседкой Эбби, но он даже не догадывается, что его первая любовь, невинная соседская девчонка, на самом деле — вампирша... Фильм снят по мотивам романа Юна Айвиде Линдквиста «Впусти меня» (Lat den ratte komma in, 2004).



Продолжительность: 01:55:48
Аудио 2: английский, AC3, 448 kbps, 6 ch, 48 kHz [оригинал]
В ролях: Коди Смит-МакФи, Клои Грэйс Моретц, Ричард Дженкинс, Кара Буоно, Элиас Котеас, Александра Баррези, Дилан Кенин, Крис Браунинг, Ричи Костер, Дилан Миннетт

Сравнение с исходником
Страна: США, Великобритания
Перевод: дублированный

Год выпуска: 2010
Жанр: ужасы, фэнтези, драма
msltel Оценка9.5 из 10 (6 голосов, самая низкая оценка - 7, самая высокая - 10) КатегорияЗарубежные фильмы Раздают3 Качают0 Сидер замечен09-06-2019 13:19:12 (4 минуты назад) Добавлен01-11-2015 14:04:05 (44 месяца назад) Размер4.13 GB (4432317375 Bytes)Видео: MPEG-4 AVC, 4106 Кбит/с, 1280x534, 23,976 кадра/с
Субтитры 1: русские
Название: Впусти меня. Сага

Если у вас возникли проблемы с закачкой Впусти меня. Сага / Let Me In (2010) BDRip 720p by msltel, перейдите по ссылке - там вы найдете решение своей проблемы.

Категория: Зарубежные фильмы

 

Скачать Впусти меня. Сага / Let Me In (2010) BDRip 720p by msltel бесплатно без регистрации

 

Информация
Посетители, находящиеся в группе Гости, не могут оставлять комментарии к данной публикации.
 
 
Скачать Впусти меня. Сага / Let Me In (2010) BDRip 720p by msltel бесплатно без регистрацииCopyright © 2019 .