Скачать Побег / La Carapate (1978) BDRip от New-Team бесплатно без регистрации





Жанр: комедия, криминал
Аудио: 48 kHz, MPEG Layer 3, 2 ch, ~128.00 kbps avg
Перевод: Профессиональный (дублированный) Киностудия им. М.Горького
Побег / La Carapate

Видео: 608x368 (1.65:1), 24.000 fps, XviD build 73 ~904 kbps avg, 0.17 bit/pixel
Режиссер: Жерар Ури / Gerard Oury

Исходник BDRemux 1080p]
Продолжительность: 01:39:47
В ролях: Пьер Ришар / Pierre Richard, Виктор Лану / Victor Lanoux, Жак Франц / Jacques Frantz, Жен-Пьер Дарра / Jean-Pierre Darras, Робер Дальбан / Robert Dalban, Клод Броссе / Claude Brosset, Раймон Бюссьер / Raymond Bussieres, Клэр Ришар / Claire Richard, Бланш Равалео / Blanche Ravaleo, Бернар Гранже / Bernard Granger, Адриен Кайла-Легран / Adrien Cayla-Legrand...

Cубтитры: нет
Качество: BDRip [Студии: BBC Films, Lip Sync Productions, The Weinstein Company LLC
Описание: Адвокат Дюрок (Пьер Ришар) навещает своего клиента в камере смертников. Внезапно начинается массовый бунт, и недотепа бежит вместе с остальными заключенными, спасаясь от пуль полицейских, вместе со своим подзащитным Голаром (Лану), которого полиция считает зачинщиком всех беспорядков. Бесчисленные погони, веселые и пикантные ситуации, общая опасность сближают героев и они становятся друзьями...



Видео кодек: XviD
Формат: AVI
Аудио кодек: MP3
Год выпуска: 1978
Страна: Франция
Оригинальная аудиодорожка: нет

Раздача от:
Скриншоты
MID:Мои рипыLa.carapate.1978.bdrip.dexter_lex.avi
General
Complete name : D:Мои рипыLa.carapate.1978.bdrip.dexter_lex.avi
Format : AVI
Format/Info : Audio Video Interleave
File size : 744 MiB
Duration : 1h 39mn
Overall bit rate : 1 042 Kbps
Writing application : VirtualDubMod 1.5.10.3 | www.virtualdub-fr.org || (build 2550/release)
Writing library : VirtualDubMod build 2550/release
Video #0
ID : 0
Format : MPEG-4 Visual
Format profile : Advanced Simple@L5
Format settings, BVOP : 1
Format settings, QPel : No
Format settings, GMC : No warppoints
Format settings, Matrix : Custom
Codec ID : XVID
Codec ID/Hint : XviD
Duration : 1h 39mn
Bit rate : 905 Kbps
Width : 608 pixels
Height : 368 pixels
Display aspect ratio : 1.652
Frame rate : 24.000 fps
Color space : YUV
Chroma subsampling : 4:2:0
Bit depth : 8 bits
Scan type : Progressive
Compression mode : Lossy
Bits/(Pixel*Frame) : 0.169
Stream size : 646 MiB (87%)
Writing library : XviD 73
Audio #1
ID : 1
Format : MPEG Audio
Format version : Version 1
Format profile : Layer 3
Codec ID : 55
Codec ID/Hint : MP3
Duration : 1h 39mn
Bit rate mode : Constant
Bit rate : 128 Kbps
Channel(s) : 2 channels
Sampling rate : 48.0 KHz
Compression mode : Lossy
Stream size : 91.4 MiB (12%)
Alignment : Aligned on interleaves
Interleave, duration : 42 ms (1.00 video frame)
Interleave, preload duration : 504 ms
Writing library : LAME3.99r
Encoding settings : -m s -V 4 -q 2 -lowpass 17 -b 128

ЗалилcontineNt ОценкаНикто ещё не поставил оценку КатегорияЗарубежные фильмы Раздают0 Качают1 Сидер замечен26-04-2019 20:19:07 (1 месяц назад) Добавлен04-12-2014 19:12:23 (55 месяцев назад) Размер743.93 MB (780066816 Bytes)АНОНСЫ МОИХ РИПОВ! ЛУЧШИЕ ФИЛЬМЫ И СЕРИАЛЫ ВСЕЙ ПЛАНЕТЫ! Подпишись :)


Если у вас возникли проблемы с закачкой Побег / La Carapate (1978) BDRip от New-Team, перейдите по ссылке - там вы найдете решение своей проблемы.

Категория: Зарубежные фильмы

 

Скачать Побег / La Carapate (1978) BDRip от New-Team бесплатно без регистрации

 

Информация
Посетители, находящиеся в группе Гости, не могут оставлять комментарии к данной публикации.
 
 
Скачать Побег / La Carapate (1978) BDRip от New-Team бесплатно без регистрацииCopyright © 2019 .