Скачать Непобедимый Мэнни Пакьяо / Kid Kulafu (2015) WEB-DLRip-AVC от ExKinoRay | iTunes бесплатно без регистрации






Rip by:

MediaInfoЦитатаВидео: 1024x426 (2.40:1), 25000 fps, x264 ~1628 kbps avg, 0.149 bit/pixel
В ролях: Роберт Вильяр, Алессандра Де Росси, Сесар Монтано, Алекс Винсент Медина, Джейк Макапагал, Халил Рамос, Йомари Ангелис, Кокой де Сантос, Як Роберто, Иги Бой Флорес

Режиссёр: Пол Сориано
Производство: Esther 4:14, TEN17P, ABS-CBN Film Productions
Дата премьеры (РФ): 3 ноября 2016, «Русский Репортаж»

Субтитры: Отсутствуют

Описание: Весь мир замирает, чтобы стоя приветствовать легенду мирового бокса…

Когда он начинал свою карьеру, его называли просто «филиппинцем». А теперь Мэнни Пакьяо — непревзойденный боксер современности — единственный, кто сумел стать чемпионом мира в восьми весовых категориях!



TorpedoUK ОценкаНикто ещё не поставил оценку КатегорияЗарубежные фильмы Раздают2 Качают0 Сидер замечен09-06-2019 11:19:11 (4 минуты назад) Добавлен29-11-2016 3:02:49 (31 месяц назад) Размер1.46 GB (1565869303 Bytes)Страна: Филлипины
Формат: MKV
Релиз от: Год выпуска: 2015
Перевод: Профессиональный (полное дублирование) [iTunes]
Видео кодек: x264
Дата премьеры (мир): 15 апреля 2015
Непобедимый Мэнни Пакьяо / Kid Kulafu
«Before he was Manny Pacquiao, he was...»


Качество: WEB-DLRip-AVC
Аудио: 48 kHz, AC3 Dolby Digital, 6 ch, ~384.00 kbps avg | RUS

Жанр: Драма, биография

Продолжительность: 01:43:48

Кто-то писал:
Общее
Уникальный идентификатор : 242449844091021841749028985186062493229 (0xB6662437AF75811AB79B33A24F34E62D)
Полное имя : D:Nepobedimyj.Menni.2015.WEB-DLRip(AVC).ExKinoRay.mkv
Формат : Matroska
Версия формата : Version 2
Размер файла : 1,46 Гбайт
Продолжительность : 1 ч. 43 м.
Общий поток : 2011 Кбит/сек
Дата кодирования : UTC 2016-11-28 12:47:58
Программа кодирования : mkvmerge v7.8.0 ('River Man') 32bit built on Apr 3 2015 12:11:22
Библиотека кодирования : libebml v1.3.1 + libmatroska v1.4.2

Видео
Идентификатор : 1
Формат : AVC
Формат/Информация : Advanced Video Codec
Профиль формата : High@L4.1
Параметр CABAC формата : Да
Параметр ReFrames формата : 10 кадров
Идентификатор кодека : V_MPEG4/ISO/AVC
Продолжительность : 1 ч. 43 м.
Битрейт : 1628 Кбит/сек
Ширина : 1024 пикселя
Высота : 426 пикселей
Соотношение сторон : 2,40:1
Режим частоты кадров : Постоянный
Частота кадров : 25,000 кадров/сек
Цветовое пространство : YUV
Субдискретизация насыщенности : 4:2:0
Битовая глубина : 8 бит
Тип развёртки : Прогрессивная
Бит/(Пиксели*Кадры) : 0.149
Размер потока : 1,15 Гбайт (79%)
Библиотека кодирования : x264 core 146 r2538 121396c
Настройки программы : cabac=1 / ref=10 / deblock=1:-3:-3 / analyse=0x3:0x133 / me=umh / subme=11 / psy=1 / psy_rd=1.00:0.03 / mixed_ref=1 / me_range=48 / chroma_me=1 / trellis=2 / 8x8dct=1 / cqm=0 / deadzone=21,11 / fast_pskip=0 / chroma_qp_offset=-3 / threads=6 / lookahead_threads=1 / sliced_threads=0 / nr=0 / decimate=0 / interlaced=0 / bluray_compat=0 / constrained_intra=0 / bframes=10 / b_pyramid=2 / b_adapt=2 / b_bias=0 / direct=3 / weightb=1 / open_gop=0 / weightp=2 / keyint=240 / keyint_min=24 / scenecut=40 / intra_refresh=0 / rc_lookahead=40 / rc=2pass / mbtree=0 / bitrate=1628 / ratetol=1.0 / qcomp=0.60 / qpmin=0 / qpmax=69 / qpstep=4 / cplxblur=20.0 / qblur=0.5 / vbv_maxrate=50000 / vbv_bufsize=62500 / nal_hrd=none / filler=0 / ip_ratio=1.40 / pb_ratio=1.30 / aq=1:1.00
Default : Да
Forced : Нет

Аудио
Идентификатор : 2
Формат : AC-3
Формат/Информация : Audio Coding 3
Расширение режима : CM (complete main)
Параметр Endianness формата : Big
Идентификатор кодека : A_AC3
Продолжительность : 1 ч. 43 м.
Вид битрейта : Постоянный
Битрейт : 384 Кбит/сек
Каналы : 6 каналов
Расположение каналов : Front: L C R, Side: L R, LFE
Частота : 48,0 КГц
Битовая глубина : 16 бит
Метод сжатия : С потерями
Размер потока : 285 Мбайт (19%)
Default : Да
Forced : Нет
Скриншоты


ЗалилАудио кодек: AC3

Если у вас возникли проблемы с закачкой Непобедимый Мэнни Пакьяо / Kid Kulafu (2015) WEB-DLRip-AVC от ExKinoRay | iTunes, перейдите по ссылке - там вы найдете решение своей проблемы.

Категория: Зарубежные фильмы

 

Скачать Непобедимый Мэнни Пакьяо / Kid Kulafu (2015) WEB-DLRip-AVC от ExKinoRay | iTunes бесплатно без регистрации

 

Информация
Посетители, находящиеся в группе Гости, не могут оставлять комментарии к данной публикации.
 
 
Скачать Непобедимый Мэнни Пакьяо / Kid Kulafu (2015) WEB-DLRip-AVC от ExKinoRay | iTunes бесплатно без регистрацииCopyright © 2019 .