Скачать 8 свиданий / 8 citas (2008) HDTV 1080i бесплатно без регистрации






Формат: MKV

Язык (перевод):
1) русский двухголосый закадровый
2) испанская оригинальная дорожка
Субтитры: испанские, английские
Год выхода: 2008
О фильме: «8 cвиданий» — это 8 коротких сюжетов, объединенных одной темой. Это комедия обо всех стадиях отношений.

Аудио 2: AC3 at 384 Kbps 6 channels, 48.0 KHzMediaInfoFormat : Matroska
File size : 4.98 GiB
Duration : 1h 28mn
Overall bit rate : 8 038 Kbps
Encoded date : UTC 2011-12-10 12:14:35
Writing application : mkvmerge v4.5.0 ('Speed of Light') built on Feb 1 2011 02:10:32
Writing library : libebml v1.2.0 + libmatroska v1.1.0

Video
ID : 1
Format : AVC
Format/Info : Advanced Video Codec
Format profile : Main@L4.0
Format settings, CABAC : Yes
Format settings, ReFrames : 4 frames
Muxing mode : Container profile=Unknown@0.0
Codec ID : V_MPEG4/ISO/AVC
Duration : 1h 28mn
Bit rate : 7 302 Kbps
Width : 1 920 pixels
Height : 1 080 pixels
Display aspect ratio : 16:9
Frame rate : 25.000 fps
Resolution : 24 bits
Colorimetry : 4:2:0
Scan type : Interlaced
Scan order : Top Field First
Bits/(Pixel*Frame) : 0.141
Stream size : 4.52 GiB (91%)

Audio #1
ID : 2
Format : AC-3
Format/Info : Audio Coding 3
Codec ID : A_AC3
Duration : 1h 28mn
Bit rate mode : Constant
Bit rate : 192 Kbps
Channel(s) : 2 channels
Channel positions : L R
Sampling rate : 48.0 KHz
Video delay : -120ms
Stream size : 122 MiB (2%)
Title : Русский
Language : Russian

Audio #2
ID : 3
Format : AC-3
Format/Info : Audio Coding 3
Codec ID : A_AC3
Duration : 1h 28mn
Bit rate mode : Constant
Bit rate : 384 Kbps
Channel(s) : 6 channels
Channel positions : Front: L C R, Surround: L R, LFE
Sampling rate : 48.0 KHz
Video delay : -96ms
Stream size : 244 MiB (5%)
Title : Испанский
Language : Spanish

Text #1
ID : 4
Format : UTF-8
Codec ID : S_TEXT/UTF8
Codec ID/Info : UTF-8 Plain Text
Title : Испанские
Language : Spanish

Text #2
ID : 5
Format : UTF-8
Codec ID : S_TEXT/UTF8
Codec ID/Info : UTF-8 Plain Text
Title : Английский
Скриншоты Залил~Relizer~ Оценка10 из 10 (1 голосов, самая низкая оценка - 10, самая высокая - 10) КатегорияЗарубежные фильмы Раздают1 Качают0 Сидер замечен09-06-2019 10:19:12 (4 минуты назад) Добавлен11-12-2011 12:52:13 (91 месяц назад) Размер4.98 GB (5348005526 Bytes)Видео: AVC at 7 302 Kbps 1920 x 1080i (1.778) at 25.000 fps
Оригинальное название: 8 citas
Аудио 1: AC3 at 192 Kbps 2 channels, 48.0 KHz
В ролях: Фернандо Тежеро / Fernando Tejero, Хосе Луис Гарсия Ререз / José Luis García Pérez, Белен Лопез / Belén López, Сесилия Фрейре / Cecilia Freire, Рауль Аревало / Raúl Arévalo, Хавьер Рей / Javier Rey, Марта Нието / Marta Nieto

Название: 8 свиданий
Страна: Испания
Режиссер: Перис Романо, Родриго Сорогоен / Peris Romano, Rodrigo Sorogoyen
Качество: HDTV 1080i
Информация о файле:
Продолжительность: 01:28:43
Жанр: Романтическая комедия

Если у вас возникли проблемы с закачкой 8 свиданий / 8 citas (2008) HDTV 1080i, перейдите по ссылке - там вы найдете решение своей проблемы.

Категория: Зарубежные фильмы

 

Скачать 8 свиданий / 8 citas (2008) HDTV 1080i бесплатно без регистрации

 

Информация
Посетители, находящиеся в группе Гости, не могут оставлять комментарии к данной публикации.
 
 
Скачать 8 свиданий / 8 citas (2008) HDTV 1080i бесплатно без регистрацииCopyright © 2019 .