Скачать Защитник / Concussion (2015) BDRip-AVC от New-Team | Лицензия бесплатно без регистрации




Аудио кодек: AC3
Видео: 1902 Кбит/сек, 1052*440 (2,40:1), в 23,976 (24000/1001) кадра/сек, AVC
Защитник
Продолжительность: 02:02:50

Качество видео:Релиз:

Профессиональный (полное дублирование) [Blu-Ray CEE]
Concussion

«Even Legends Need a Hero»






Аудио #1: русский, 448 Кбит/сек, 48,0 КГц, 6 каналов, AC-3
S.T.A.L.K.E.R.2 ОценкаНикто ещё не поставил оценку КатегорияЗарубежные фильмы Раздают2 Качают0 Сидер замечен09-06-2019 7:19:11 (4 минуты назад) Добавлен17-07-2016 13:44:54 (35 месяцев назад) Размер2.18 GB (2343826551 Bytes)Описание:
В Америке один за одним неожиданно и загадочно умирают знаменитые спортсмены. Молодой, но талантливый патологоанатом хочет докопаться до истины, однако не всем нужна правда.



Жанр: драма, биография, спорт

Субтитры: русские (форсированные, полные), украинские (полные), английские (полные, SDH)
Перевод:Навигация по главам: есть



MediaInfo
Общее
Уникальный идентификатор : 199256328111319178994333242996932138503 (0x95E75F75D6AC1102A66D9DF86C8ED607)
Полное имя : M:2RipsConcussionConcussion.2015.BDRip-AVC.Dub.2.18Gb.stalkerok.new-team.mkv
Формат : Matroska
Версия формата : Version 4 / Version 2
Размер файла : 2,18 Гбайт
Продолжительность : 2 ч. 2 м.
Общий поток : 2544 Кбит/сек
Название фильма : Concussion (2015) (Rip by stalkerok)
Дата кодирования : UTC 2016-07-17 10:15:40
Программа кодирования : mkvmerge v8.6.1 ('Flying') 64bit
Библиотека кодирования : libebml v1.3.3 + libmatroska v1.4.4

Видео
Идентификатор : 1
Формат : AVC
Формат/Информация : Advanced Video Codec
Профиль формата : High@L4.1
Параметр CABAC формата : Да
Параметр ReFrames формата : 14 кадров
Идентификатор кодека : V_MPEG4/ISO/AVC
Продолжительность : 2 ч. 2 м.
Битрейт : 1902 Кбит/сек
Ширина : 1052 пикселя
Высота : 440 пикселей
Соотношение сторон : 2,40:1
Режим частоты кадров : Постоянный
Частота кадров : 23,976 (24000/1001) кадра/сек
Цветовое пространство : YUV
Субдискретизация насыщенности : 4:2:0
Битовая глубина : 8 бит
Тип развёртки : Прогрессивная
Бит/(Пиксели*Кадры) : 0.171
Размер потока : 1,63 Гбайт (75%)
Заголовок : Concussion (2015) (Rip by stalkerok)
Библиотека кодирования : x264 core 148 r2705+54 9f484c1 t_mod_Custom [8-bit@all X86_64]
Настройки программы : cabac=1 / ref=14 / deblock=1:-3:-2 / analyse=0x3:0x133 / me=umh / subme=10 / psy=1 / fade_compensate=0.00 / psy_rd=1.00:0.00 / mixed_ref=1 / me_range=32 / chroma_me=1 / trellis=2 / 8x8dct=1 / cqm=0 / deadzone=21,11 / fast_pskip=0 / chroma_qp_offset=-2 / threads=12 / lookahead_threads=3 / sliced_threads=0 / nr=0 / decimate=0 / interlaced=0 / bluray_compat=0 / constrained_intra=0 / fgo=0 / bframes=14 / b_pyramid=2 / b_adapt=2 / b_bias=0 / direct=3 / weightb=1 / open_gop=0 / weightp=2 / keyint=240 / keyint_min=23 / scenecut=40 / intra_refresh=0 / rc_lookahead=60 / rc=2pass / mbtree=0 / bitrate=1902 / ratetol=1.0 / qcomp=0.65 / qpmin=0:0:0 / qpmax=69:69:69 / qpstep=4 / cplxblur=20.0 / qblur=0.5 / vbv_maxrate=50000 / vbv_bufsize=62500 / nal_hrd=none / filler=0 / ip_ratio=1.40 / pb_ratio=1.30 / aq=3:0.80 / aq-sensitivity=10.00 / aq-factor=1.00:1.00:1.00 / aq2=0 / aq3=0
Default : Да
Forced : Нет

Аудио #1
Идентификатор : 2
Формат : AC-3
Формат/Информация : Audio Coding 3
Расширение режима : CM (complete main)
Параметр Endianness формата : Big
Идентификатор кодека : A_AC3
Продолжительность : 2 ч. 2 м.
Вид битрейта : Постоянный
Битрейт : 448 Кбит/сек
Каналы : 6 каналов
Расположение каналов : Front: L C R, Side: L R, LFE
Частота : 48,0 КГц
Частота кадров : 31,250 кадров/сек (1536 spf)
Метод сжатия : С потерями
Размер потока : 394 Мбайт (18%)
Язык : Russian
Default : Да
Forced : Нет

Аудио #2
Идентификатор : 3
Формат : AC-3
Формат/Информация : Audio Coding 3
Расширение режима : CM (complete main)
Параметр Endianness формата : Big
Идентификатор кодека : A_AC3
Продолжительность : 2 ч. 2 м.
Вид битрейта : Постоянный
Битрейт : 192 Кбит/сек
Каналы : 2 канала
Расположение каналов : Front: L R
Частота : 48,0 КГц
Частота кадров : 31,250 кадров/сек (1536 spf)
Метод сжатия : С потерями
Размер потока : 169 Мбайт (8%)
Язык : English
Default : Нет
Forced : Нет

Текст #1
Идентификатор : 4
Формат : UTF-8
Идентификатор кодека : S_TEXT/UTF8
Идентификатор кодека/Информация : UTF-8 Plain Text
Продолжительность : 1 ч. 56 м.
Битрейт : 1 бит/сек
Count of elements : 20
Размер потока : 1,56 Кбайт (0%)
Заголовок : Forced
Язык : Russian
Default : Да
Forced : Нет

Текст #2
Идентификатор : 5
Формат : UTF-8
Идентификатор кодека : S_TEXT/UTF8
Идентификатор кодека/Информация : UTF-8 Plain Text
Продолжительность : 1 ч. 57 м.
Битрейт : 96 бит/сек
Count of elements : 1383
Размер потока : 83,4 Кбайт (0%)
Язык : Russian
Default : Нет
Forced : Нет

Текст #3
Идентификатор : 6
Формат : UTF-8
Идентификатор кодека : S_TEXT/UTF8
Идентификатор кодека/Информация : UTF-8 Plain Text
Продолжительность : 1 ч. 57 м.
Битрейт : 90 бит/сек
Count of elements : 1381
Размер потока : 78,4 Кбайт (0%)
Язык : Ukrainian
Default : Нет
Forced : Нет

Текст #4
Идентификатор : 7
Формат : UTF-8
Идентификатор кодека : S_TEXT/UTF8
Идентификатор кодека/Информация : UTF-8 Plain Text
Продолжительность : 1 ч. 57 м.
Битрейт : 53 бит/сек
Count of elements : 1322
Размер потока : 46,0 Кбайт (0%)
Язык : English
Default : Нет
Forced : Нет

Текст #5
Идентификатор : 8
Формат : UTF-8
Идентификатор кодека : S_TEXT/UTF8
Идентификатор кодека/Информация : UTF-8 Plain Text
Продолжительность : 2 ч. 0 м.
Битрейт : 59 бит/сек
Count of elements : 1587
Размер потока : 52,7 Кбайт (0%)
Заголовок : SDH
Язык : English
Default : Нет
Forced : Нет

Меню
00:00:00.000 : en:Chapter 1
00:07:26.696 : en:Chapter 2
00:14:41.630 : en:Chapter 3
00:21:48.098 : en:Chapter 4
00:29:36.566 : en:Chapter 5
00:37:42.927 : en:Chapter 6
00:43:44.538 : en:Chapter 7
00:51:30.712 : en:Chapter 8
00:59:35.446 : en:Chapter 9
01:06:58.264 : en:Chapter 10
01:13:07.508 : en:Chapter 11
01:22:18.308 : en:Chapter 12
01:30:34.720 : en:Chapter 13
01:38:15.097 : en:Chapter 14
01:46:46.942 : en:Chapter 15
01:53:34.808 : en:Chapter 16









ЗалилАвтор рипа:Страна: Великобритания, Австралия, США
Сэмпл

BDRip-AVC [Concussion (2015) Blu-Ray CEE RUTOR]
Год выпуска: 2015
Режиссер: Питер Ландесман / Peter Landesman

Видео кодек: AVC
stalkerok

Формат видео: MKV
Оригинальная аудиодорожка: английский

Аудио #2: английский, 192 Кбит/сек, 48,0 КГц, 2 канала, AC-3
В ролях: Уилл Смит, Алек Болдуин, Альберт Брукс, Гугу Эмбата-Ро, Дэвид Морс, Арлисс Ховард, Майк О’Мэлли, Эдди Марсан, Хилл Харпер, Адевале Акинойе-Агбаже, Стивен Мойер, Ричард Т. Джонс

Если у вас возникли проблемы с закачкой Защитник / Concussion (2015) BDRip-AVC от New-Team | Лицензия, перейдите по ссылке - там вы найдете решение своей проблемы.

Категория: Зарубежные фильмы

 

Скачать Защитник / Concussion (2015) BDRip-AVC от New-Team | Лицензия бесплатно без регистрации

 

Информация
Посетители, находящиеся в группе Гости, не могут оставлять комментарии к данной публикации.
 
 
Скачать Защитник / Concussion (2015) BDRip-AVC от New-Team | Лицензия бесплатно без регистрацииCopyright © 2019 .