Скачать Битва у Красной скалы 2 / Chibi xia: Jue zhan tian xia (2009) BDRip 720p | ATV | P,P1 бесплатно без регистрации






Жанр: боевик, драма, военный, история
Битва у Красной скалы 2 / Chibi xia: Jue zhan tian xia (2009) BDRip-AVC [720p] | ATV | P,P1

Оригинальное название: Chibi xia: Jue zhan tian xia
Видео: 1280x720 (16:9) at 24.000 fps, AVC at 4360 kbps
Студия: Beijing Film Studio, China Film Group, Lion Rock Productions
Название: Битва у Красной скалы 2
Звук:
1: ААС 2.0 192 kbps - Русский профессиональный многоголосый закадровый
2: АС3 5.1 384 kbps - Русский профессиональный многоголосый закадровый
3: АС3 5.1 384 kbps - Русский профессиональный одноголосый закадровый (Сербин)
4: АС3 5.1 384 kbps - Китайский


gekka Оценка10 из 10 (2 голосов, самая низкая оценка - 10, самая высокая - 10) КатегорияЗарубежные фильмы Раздают1 Качают0 Сидер замечен09-06-2019 7:19:11 (4 минуты назад) Добавлен25-02-2014 11:53:28 (64 месяца назад) Размер5.63 GB (6048580064 Bytes)Качество: BDRip-AVC 720p | ATV
Субтитры: Отсутствуют

MI
General
Complete name : C:CREATE480outChibi.II.2009 (HD).m4v
Format : MPEG-4
Codec ID : M4V
File size : 5.63 GiB
Duration : 2h 21mn
Overall bit rate mode : Variable
Overall bit rate : 5 707 Kbps
Movie name : Битва у Красной скалы 2
Performer : Джон Ву
Genre : Action & Adventure
Recorded date : UTC 2009-01-08 08:00:00
Encoded date : UTC 2014-02-24 22:20:58
Tagged date : UTC 2014-02-25 07:32:41
Copyright : Beijing Film Studio, China Film Group, Lion Rock Productions
Cover : Yes
sonm : Chi bi xia: Jue zhan tian xia
desc : Фильм рассказывает о двух военачальниках Сунь Цюане и Лю Бэе, которые в 208 году, общими усилиями победили более сильную армию военачальника Цао Цао…
ldes : Фильм рассказывает о двух военачальниках Сунь Цюане и Лю Бэе, которые в 208 году, общими усилиями победили более сильную армию военачальника Цао Цао…
hdvd : 1
stik : 9
rtng : 0
cnID : 432796
xid : Apple:vendor_id:2009-432796
iTunEXTC : mpaa|R|400|

Video #1
ID : 1
Format : AVC
Format/Info : Advanced Video Codec
Format profile : High@L4.1
Format settings, CABAC : Yes
Format settings, ReFrames : 8 frames
Codec ID : avc1
Codec ID/Info : Advanced Video Coding
Duration : 2h 21mn
Bit rate : 4 360 Kbps
Maximum bit rate : 27.0 Mbps
Width : 1 280 pixels
Height : 720 pixels
Display aspect ratio : 16:9
Frame rate mode : Constant
Frame rate : 24.000 fps
Color space : YUV
Chroma subsampling : 4:2:0
Bit depth : 8 bits
Scan type : Progressive
Bits/(Pixel*Frame) : 0.197
Stream size : 4.30 GiB (76%)
Title : Chi bi xia_ Jue zhan tian xia _2009_
Writing library : x264 core 140 r2377+40 929f149 tMod [8-bit@4:2:0 X86_64]
Encoding settings : cabac=1 / ref=9 / deblock=1:0:0 / analyse=0x3:0x113 / me=umh / subme=11 / psy=1 / fade_compensate=0.00 / psy_rd=1.00:0.05 / mixed_ref=1 / me_range=48 / chroma_me=1 / trellis=2 / 8x8dct=1 / cqm=0 / deadzone=21,11 / fast_pskip=0 / chroma_qp_offset=-3 / threads=12 / lookahead_threads=3 / sliced_threads=0 / nr=0 / decimate=0 / interlaced=0 / bluray_compat=0 / constrained_intra=0 / fgo=0 / bframes=12 / b_pyramid=1 / b_adapt=2 / b_bias=0 / direct=1 / weightb=1 / open_gop=0 / weightp=2 / keyint=250 / keyint_min=23 / scenecut=40 / intra_refresh=0 / rc_lookahead=180 / rc=crf / mbtree=1 / crf=19.0000 / qcomp=0.60 / qpmin=0:0:0 / qpmax=69:69:69 / qpstep=4 / vbv_maxrate=62500 / vbv_bufsize=50000 / crf_max=0.0 / nal_hrd=none / filler=0 / ip_ratio=1.30 / aq=4:0.90 / aq-sensitivity=10.00 / aq-factor=1.00:1.00:1.00 / aq2=0 / aq3=0
Language : Chinese
Encoded date : UTC 2014-02-24 22:20:58
Tagged date : UTC 2014-02-24 22:22:52
Matrix coefficients : BT.709

Video #2
ID : 9
Format : JPEG
Codec ID : jpeg
Duration : 2h 21mn
Bit rate mode : Variable
Bit rate : 863 bps
Width : 640 pixels
Height : 360 pixels
Display aspect ratio : 16:9
Frame rate mode : Variable
Frame rate : 0.002 fps
Minimum frame rate : 0.001 fps
Maximum frame rate : 0.006 fps
Color space : YUV
Chroma subsampling : 4:2:0
Bit depth : 8 bits
Compression mode : Lossy
Bits/(Pixel*Frame) : 1.873
Stream size : 790 KiB (0%)
Language : Chinese
Encoded date : UTC 2014-02-25 06:47:02
Tagged date : UTC 2014-02-25 06:47:02

Audio #1
ID : 2
Format : AAC
Format/Info : Advanced Audio Codec
Format profile : LC
Codec ID : 40
Duration : 2h 21mn
Bit rate mode : Variable
Bit rate : 192 Kbps
Maximum bit rate : 230 Kbps
Channel(s) : 2 channels
Channel positions : Front: L R
Sampling rate : 48.0 KHz
Compression mode : Lossy
Stream size : 192 MiB (3%)
Title : AAC MVO
Language : Russian
Encoded date : UTC 2014-02-24 22:00:07
Tagged date : UTC 2014-02-24 22:22:52

Audio #2
ID : 3
Format : AC-3
Format/Info : Audio Coding 3
Mode extension : CM (complete main)
Format settings, Endianness : Big
Codec ID : ac-3
Duration : 2h 21mn
Bit rate mode : Constant
Bit rate : 384 Kbps
Channel(s) : 6 channels
Channel positions : Front: L C R, Side: L R, LFE
Sampling rate : 48.0 KHz
Bit depth : 16 bits
Compression mode : Lossy
Stream size : 388 MiB (7%)
Title : AC3 MVO
Language : Russian
Encoded date : UTC 2014-02-24 22:22:03
Tagged date : UTC 2014-02-24 22:22:52

Audio #3
ID : 5
Format : AC-3
Format/Info : Audio Coding 3
Mode extension : CM (complete main)
Format settings, Endianness : Big
Codec ID : ac-3
Duration : 2h 21mn
Bit rate mode : Constant
Bit rate : 384 Kbps
Channel(s) : 6 channels
Channel positions : Front: L C R, Side: L R, LFE
Sampling rate : 48.0 KHz
Bit depth : 16 bits
Compression mode : Lossy
Stream size : 388 MiB (7%)
Title : AC3 AVO
Language : Russian
Encoded date : UTC 2014-02-24 22:22:20
Tagged date : UTC 2014-02-24 22:22:52

Audio #4
ID : 7
Format : AC-3
Format/Info : Audio Coding 3
Mode extension : CM (complete main)
Format settings, Endianness : Big
Codec ID : ac-3
Duration : 2h 21mn
Bit rate mode : Constant
Bit rate : 384 Kbps
Channel(s) : 6 channels
Channel positions : Front: L C R, Side: L R, LFE
Sampling rate : 48.0 KHz
Bit depth : 16 bits
Compression mode : Lossy
Stream size : 388 MiB (7%)
Title : AC3 Original
Language : Chinese
Encoded date : UTC 2014-02-24 22:22:37
Tagged date : UTC 2014-02-24 22:22:52

Menu
ID : 8
Codec ID : text
Duration : 2h 21mn
Language : Chinese
Encoded date : UTC 2014-02-24 22:26:34
Tagged date : UTC 2014-02-24 22:26:34
Bit rate mode : CBR
iTunes Meta Tags
Sort Name: Chi bi xia: Jue zhan tian xia
XID: Apple:vendor_id:2009-432796
contentID: 432796
Copyright: Beijing Film Studio, China Film Group, Lion Rock Productions
Screenwriters: Джон Ву, Кхан Чан, Чэн Куо
Producers: Тэжэньцэ Чан, Саньпин Хань, Джон Ву
Director: John Woo
Cast: Tony Leung Chiu-Wai (Zhou Yu), Takeshi Kaneshiro (Zhuge Liang), Fengyi Zhang (Cao Cao), Zhao Wei (Sun Shangxiang), Chang Chen (Sun Quan), Song Jia (Li Ji), Hu Jun (General Zhao Yun), Tong Dawei (Private Sun Shucai)
Studio: Beijing Film Studio, China Film Group, Lion Rock Productions
Rating: 5
Long Deion: Фильм рассказывает о двух военачальниках Сунь Цюане и Лю Бэе, которые в 208 году, общими усилиями победили более сильную армию военачальника Цао Цао…
Deion: Фильм рассказывает о двух военачальниках Сунь Цюане и Лю Бэе, которые в 208 году, общими усилиями победили более сильную армию военачальника Цао Цао…
Release Date: 2009-01-08T08:00:00Z
Genre: Action & Adventure
Artist: Джон Ву
Name: Битва у Красной скалы 2
x264
x264 [info]: frame I:1624 Avg QP:17.50 size:127258
x264 [info]: frame P:50712 Avg QP:20.96 size: 42665
x264 [info]: frame B:151138 Avg QP:23.05 size: 14887
x264 [info]: consecutive B-frames: 3.5% 5.1% 11.2% 27.6% 14.2% 34.8% 2.0% 0.3% 0.6% 0.1% 0.1% 0.2% 0.3%
x264 [info]: mb I I16..4: 9.9% 73.3% 16.8%
x264 [info]: mb P I16..4: 3.5% 18.5% 2.3% P16..4: 31.4% 31.4% 8.0% 0.0% 0.0% skip: 4.9%
x264 [info]: mb B I16..4: 0.5% 2.9% 0.3% B16..8: 34.6% 16.6% 2.5% direct: 5.3% skip:37.3% L0:42.1% L1:47.0% BI:10.9%
x264 [info]: 8x8 transform intra:77.0% inter:67.8%
x264 [info]: coded y,uvDC,uvAC intra: 72.8% 74.4% 42.2% inter: 25.3% 26.3% 6.9%
x264 [info]: i16 v,h,dc,p: 19% 20% 5% 55%
x264 [info]: i8 v,h,dc,ddl,ddr,vr,hd,vl,hu: 7% 6% 8% 10% 15% 14% 14% 12% 13%
x264 [info]: i4 v,h,dc,ddl,ddr,vr,hd,vl,hu: 10% 8% 5% 8% 15% 14% 14% 11% 13%
x264 [info]: i8c dc,h,v,p: 33% 27% 20% 20%
x264 [info]: Weighted P-Frames: Y:7.6% UV:5.9%
x264 [info]: ref P L0: 59.1% 12.6% 13.4% 5.5% 3.5% 2.5% 1.9% 1.2% 0.3% 0.0%
x264 [info]: ref B L0: 86.3% 6.8% 3.1% 1.5% 1.0% 0.8% 0.5%
x264 [info]: ref B L1: 95.1% 4.9%
x264 [info]: kb/s:4359.74



ЗалилСтрана: Китай
Год выхода: 2009
Кодек: H.264
В ролях: Тони Люн Чу Вай, Такеши Канеширо, Чжан Фэнъи, Чжан Чжэнь, Чжао Вэй, Ху Цзюнь, Линь Чжилин, Шидо Накамура, Юн Ю, Ба Сэнь Чжа Бу

О фильме:
Фильм рассказывает о двух военачальниках Сунь Цюане и Лю Бэе, которые в 208 году, общими усилиями победили более сильную армию военачальника Цао Цао…




Продолжительность: 02:21:18
Режиссер: Джон Ву
Перевод: Русский профессиональный многоголосый закадровый, профессиональный одноголосый закадровый


Если у вас возникли проблемы с закачкой Битва у Красной скалы 2 / Chibi xia: Jue zhan tian xia (2009) BDRip 720p | ATV | P,P1, перейдите по ссылке - там вы найдете решение своей проблемы.

Категория: Зарубежные фильмы

 

Скачать Битва у Красной скалы 2 / Chibi xia: Jue zhan tian xia (2009) BDRip 720p | ATV | P,P1 бесплатно без регистрации

 

Информация
Посетители, находящиеся в группе Гости, не могут оставлять комментарии к данной публикации.
 
 
Скачать Битва у Красной скалы 2 / Chibi xia: Jue zhan tian xia (2009) BDRip 720p | ATV | P,P1 бесплатно без регистрацииCopyright © 2019 .