Скачать Оз: Возвращение в Изумрудный Город / Legends of Oz: Dorothy's Return (2013) HDRip от New-Team | D | лицензия бесплатно без регистрации




Формат: AVI

Описание: Дороти снова магическим образом переносится в страну Оз, чтобы спасти от беды ее жителей. Но оказывается, что старые друзья Дороти — Страшила, Железный Дровосек и Храбрый Лев — исчезли. Путешествуя по стране в поисках своих друзей, Дороти встречает новых попутчиков — Капитана Зефира, Фарфоровую Принцессу и филина Савву. Дороти должна помочь таким разным героям объединиться, чтобы одолеть нового злодея — шута Джестера, который хочет захватить страну Оз при помощи черной магии.



Продолжительность: 01:32:02

Год выпуска: 2013
«There's trouble in OZ...»



Раздача от:
MediaInfo
Общее
Полное имя : Oz.Vozvrashenie.v.Izumrudnyi.Gorod.2013.D.HDRip.avi
Формат : AVI
Формат/Информация : Audio Video Interleave
Размер файла : 1,46 Гбайт
Продолжительность : 1 ч. 32 м.
Общий поток : 2272 Кбит/сек
Программа кодирования : VirtualDubMod 1.5.10.3 | www.virtualdub-fr.org || (build 2550/release)
Библиотека кодирования : VirtualDubMod build 2550/release

Видео
Идентификатор : 0
Формат : MPEG-4 Visual
Профиль формата : Advanced Simple@L5
Параметр BVOP формата : 2
Параметр QPel формата : Нет
Параметр GMC формата : Без точки перехода
Параметр матрицы формата : Default (MPEG)
Идентификатор кодека : XVID
Идентификатор кодека/Подсказка : XviD
Продолжительность : 1 ч. 32 м.
Битрейт : 1815 Кбит/сек
Ширина : 720 пикселей
Высота : 400 пикселей
Соотношение сторон : 16:9
Частота кадров : 23,976 кадра/сек
Цветовое пространство : YUV
Субдискретизация насыщенности : 4:2:0
Битовая глубина : 8 бит
Тип развёртки : Прогрессивная
Метод сжатия : С потерями
Бит/(Пиксели*Кадры) : 0.263
Размер потока : 1,17 Гбайт (80%)
Библиотека кодирования : XviD 1.2.1 (UTC 2008-12-04)

Аудио
Идентификатор : 1
Формат : AC-3
Формат/Информация : Audio Coding 3
Расширение режима : CM (complete main)
Параметр Endianness формата : Big
Идентификатор кодека : 2000
Продолжительность : 1 ч. 32 м.
Вид битрейта : Постоянный
Битрейт : 448 Кбит/сек
Каналы : 6 каналов
Расположение каналов : Front: L C R, Side: L R, LFE
Частота : 48,0 КГц
Битовая глубина : 16 бит
Метод сжатия : С потерями
Размер потока : 295 Мбайт (20%)
Выравнивание : Разделение по промежуткам
Продолжительность промежутка : 42 мс. (1,00 видеокадр)
Время предзагрузки промежутка : 500 мс.

Скриншоты:

ОценкаНикто ещё не поставил оценку КатегорияМультипликация Раздают4 Качают1 Сидер замечен08-06-2019 19:19:12 (3 минуты назад) Добавлен16-08-2014 19:35:58 (59 месяцев назад) Размер1.46 GB (1568342016 Bytes)Режиссер: Уилл Финн / Will Finn, Дэн Ст. Пьер / Dan St. Pierre

DVD5 R5 от CD Land - Лицензия
В ролях: Лиа Мишель, Патрик Стюарт, Джеймс Белуши, Дэн Эйкройд, Келси Грэммер, Меган Хилти, Хью Дэнси, Оливер Платт, Бернадетт Питерс, Мартин Шорт...

Аудио: Dolby Digital Audio Russian 448 kbps 5.1 / 48 kHz / 448 kbps

Cубтитры: нет
Роли дублировали: Полина Гагарина, Алексей Чумаков, Александр Головчанский, Станислав Дужников, Гарик Харламов...

Качество: HDRip /Жанр: мультфильм, мюзикл, семейный
Видео: 720x400 (16:9), XViD 1815 Кбит/сек / 23.976 fps / Бит/(Пиксели*Кадры) : 0.263
Перевод: Профессиональный (дублированный)
Оригинальная аудиодорожка: нет

Страна: США, Индия / Prana Animation Studios, Prana Studios, Summertime Entertainment (II)

Если у вас возникли проблемы с закачкой Оз: Возвращение в Изумрудный Город / Legends of Oz: Dorothy's Return (2013) HDRip от New-Team | D | лицензия, перейдите по ссылке - там вы найдете решение своей проблемы.

Категория: Мультипликация

 

Скачать Оз: Возвращение в Изумрудный Город / Legends of Oz: Dorothy's Return (2013) HDRip от New-Team | D | лицензия бесплатно без регистрации

 

Информация
Посетители, находящиеся в группе Гости, не могут оставлять комментарии к данной публикации.
 
 
Скачать Оз: Возвращение в Изумрудный Город / Legends of Oz: Dorothy's Return (2013) HDRip от New-Team | D | лицензия бесплатно без регистрацииCopyright © 2019 .