Скачать Водяная (2018) WEB-DLRip от Portablius | iTunes бесплатно без регистрации






Информация о фильме
Год выхода: 2018
Продолжительность: 01:25:25
В ролях: Николай Невзоров, Екатерина Барыкина, Нафиса Хайруллина, Ильдус Габдрахманов, Гузель Шакирзянова, Фанис Зиганшин, Юлия Захарова

Звук: 48 kHz, MPEG Layer 3, 2 ch, ~128.00 kbps avg

MediaInfoGeneral
Complete name : Vodyanaya.2018.WEB-DLRip.Portablius.avi
Format : AVI
Format/Info : Audio Video Interleave
File size : 745 MiB
Duration : 1 h 25 min
Overall bit rate : 1 219 kb/s
Writing application : VirtualDubMod 1.5.10.3 | www.virtualdub-fr.org || (build 2550/release)
Writing library : VirtualDubMod build 2550/release

Video
ID : 0
Format : MPEG-4 Visual
Format profile : Advanced Simple@L5
Format settings : BVOP1 / Custom Matrix
Format settings, BVOP : 1
Format settings, QPel : No
Format settings, GMC : No warppoints
Format settings, Matrix : Custom
Codec ID : XVID
Codec ID/Hint : XviD
Duration : 1 h 25 min
Bit rate : 1 082 kb/s
Width : 720 pixels
Height : 304 pixels
Display aspect ratio : 2.35:1
Frame rate : 24.000 FPS
Color space : YUV
Chroma subsampling : 4:2:0
Bit depth : 8 bits
Scan type : Progressive
Compression mode : Lossy
Bits/(Pixel*Frame) : 0.206
Stream size : 661 MiB (89%)
Writing library : XviD 73

Audio
ID : 1
Format : MPEG Audio
Format version : Version 1
Format profile : Layer 3
Codec ID : 55
Codec ID/Hint : MP3
Duration : 1 h 25 min
Bit rate mode : Constant
Bit rate : 128 kb/s
Channel(s) : 2 channels
Sampling rate : 48.0 kHz
Frame rate : 41.667 FPS (1152 SPF)
Compression mode : Lossy
Stream size : 78.2 MiB (11%)
Alignment : Aligned on interleaves
Interleave, duration : 42 ms (1.00 video frame)
Interleave, preload duratio : 504 ms
Writing library : LAME3.99r
Encoding settings : -m s -V 4 -q 2 -lowpass 17 -b 128

Скриншоты ЗалилEvgen Portable Оценка10 из 10 (1 голосов, самая низкая оценка - 10, самая высокая - 10) КатегорияНаши фильмы Раздают19 Качают0 Сидер замечен08-06-2019 23:19:12 (43 минуты назад) Добавлен29-04-2019 20:24:21 (1 месяц назад) Размер744.70 MB (780873728 Bytes)Жанр: Фэнтези, детский
Перевод: Не требуется
Качество: WEB-DLRip
О фильме: Двое детей, брат и сестра, приезжают в гости к родственникам в отдаленную деревню. Темной ночью их мать похищает Водяная — страшная ведьма, которая живет в озере.



Кодек: XviD
Режиссер: Алексей Барыкин
Название: Водяная
Страна: Россия
Студия: Кинокомпания Алексея Барыкина
Видео: 720x304 (2.37:1), 24.000 fps, XviD build 73 ~1081 kbps avg, 0.21 bit/pixel
Субтитры: нет

Если у вас возникли проблемы с закачкой Водяная (2018) WEB-DLRip от Portablius | iTunes, перейдите по ссылке - там вы найдете решение своей проблемы.

Категория: Наши фильмы

 

Скачать Водяная (2018) WEB-DLRip от Portablius | iTunes бесплатно без регистрации

 

Информация
Посетители, находящиеся в группе Гости, не могут оставлять комментарии к данной публикации.
 
 
Скачать Водяная (2018) WEB-DLRip от Portablius | iTunes бесплатно без регистрацииCopyright © 2019 .