Скачать Мое сердце биться перестало / De battre mon coeur s'est arrete (2005) BDRip 1080p | P бесплатно без регистрации






Информация о фильме
Oakenfold_

сборка:Жанр: Боевик, триллер, драма, мелодрама, криминал, музыка
StarbirS
инфо-файлФормат : Matroska
Версия формата : Version 4 / Version 2
Размер файла : 11,6 Гбайт
Продолжительность : 1 ч. 46 м.
Общий поток : 15,6 Мбит/сек
Название фильма : The.Beat.That.My.Heart.Skipped.2005.AVC.BDRip.(1080p).CHD
Дата кодирования : UTC 2013-10-22 14:06:22
Программа кодирования : mkvmerge v6.3.0 ('You can't stop me!') built on Jun 28 2013 20:09:41
Библиотека кодирования : libebml v1.3.0 + libmatroska v1.4.0

Видео
Идентификатор : 1
Формат : AVC
Формат/Информация : Advanced Video Codec
Профиль формата : High@L4.1
Параметр CABAC формата : Да
Параметр ReFrames формата : 4 кадра
Идентификатор кодека : V_MPEG4/ISO/AVC
Продолжительность : 1 ч. 46 м.
Битрейт : 14,6 Мбит/сек
Ширина : 1920 пикселей
Высота : 1036 пикселей
Соотношение сторон : 1,85:1
Режим частоты кадров : Постоянный
Частота кадров : 24,000 кадра/сек
Цветовое пространство : YUV
Субдискретизация насыщенности : 4:2:0
Битовая глубина : 8 бит
Тип развёртки : Прогрессивная
Бит/(Пиксели*Кадры) : 0.306
Размер потока : 10,6 Гбайт (91%)
Заголовок : The.Beat.That.My.Heart.Skipped.2005.AVC.BDRip.(1080p).CHD
Библиотека кодирования : x264 core 138 r2356 a1d3d17
Настройки программы : cabac=1 / ref=4 / deblock=1:-3:-3 / analyse=0x3:0x113 / me=umh / subme=10 / psy=1 / psy_rd=1.05:0.10 / mixed_ref=1 / me_range=32 / chroma_me=1 / trellis=2 / 8x8dct=1 / cqm=0 / deadzone=21,11 / fast_pskip=0 / chroma_qp_offset=-2 / threads=18 / lookahead_threads=1 / sliced_threads=0 / nr=0 / decimate=1 / interlaced=0 / bluray_compat=0 / constrained_intra=0 / bframes=6 / b_pyramid=2 / b_adapt=2 / b_bias=0 / direct=3 / weightb=1 / open_gop=0 / weightp=2 / keyint=250 / keyint_min=24 / scenecut=40 / intra_refresh=0 / rc=2pass / mbtree=0 / bitrate=14620 / ratetol=1.0 / qcomp=0.70 / qpmin=0 / qpmax=69 / qpstep=4 / cplxblur=20.0 / qblur=0.5 / ip_ratio=1.40 / pb_ratio=1.30 / aq=2:1.00
Язык : French
Default : Да
Forced : Нет

Аудио #1
Идентификатор : 2
Формат : AC-3
Формат/Информация : Audio Coding 3
Расширение режима : CM (complete main)
Параметр Endianness формата : Big
Идентификатор кодека : A_AC3
Продолжительность : 1 ч. 46 м.
Вид битрейта : Постоянный
Битрейт : 384 Кбит/сек
Каналы : 6 каналов
Расположение каналов : Front: L C R, Side: L R, LFE
Частота : 48,0 КГц
Битовая глубина : 16 бит
Метод сжатия : С потерями
Размер потока : 293 Мбайт (2%)
Заголовок : Профессиональный многоголосый
Язык : Russian
Default : Да
Forced : Нет

Аудио #2
Идентификатор : 3
Формат : AC-3
Формат/Информация : Audio Coding 3
Расширение режима : CM (complete main)
Параметр Endianness формата : Big
Идентификатор кодека : A_AC3
Продолжительность : 1 ч. 46 м.
Вид битрейта : Постоянный
Битрейт : 640 Кбит/сек
Каналы : 6 каналов
Расположение каналов : Front: L C R, Side: L R, LFE
Частота : 48,0 КГц
Битовая глубина : 16 бит
Метод сжатия : С потерями
Размер потока : 488 Мбайт (4%)
Заголовок : Оригинал
Язык : French
Default : Нет
Forced : Нет

Текст #1
Идентификатор : 4
Формат : UTF-8
Идентификатор кодека : S_TEXT/UTF8
Идентификатор кодека/Информация : UTF-8 Plain Text
Заголовок : Русские
Язык : Russian
Default : Да
Forced : Нет

Текст #2
Идентификатор : 5
Формат : UTF-8
Идентификатор кодека : S_TEXT/UTF8
Идентификатор кодека/Информация : UTF-8 Plain Text
Заголовок : Английские
Язык : English
Default : Нет
Forced : Нет

Скриншоты
ЗалилStarbirS Оценка10 из 10 (2 голосов, самая низкая оценка - 10, самая высокая - 10) КатегорияЗарубежные фильмы Раздают0 Качают1 Сидер замечен07-03-2019 17:19:07 (3 месяца назад) Добавлен22-10-2013 21:52:35 (69 месяцев назад) Размер11.63 GB (12489540990 Bytes)Название: Мое сердце биться перестало
Режиссер: Жак Одиар
Студия: Canal+, Ciné Cinémas, Cofimage, France 3 Cinéma, Région Ile-de-France, Sédif Productions, Why Not Productions
Качество: BDRip (1080p)
Продолжительность: 01:46:32
CHD

Аудио: Russian: AC3, 6 ch, 384 kbps, 48 kHz | [многоголосый]
Аудио: English: AC3, 6 ch, 640 kbps, 48 kHz | [оригинал]

перевод и субтитры с раздачиОригинальное название: De battre mon coeur s'est arrete (The Beat That My Heart Skipped)
О фильме:
Тома 28 лет и ему уготовано продолжать бизнес своего отца: заниматься темными, полукриминальными сделками с недвижимостью. Это подлый и порою очень жестокий бизнес. Но случайная встреча внушает ему надежду, что он может, как его мать, стать концертирующим пианистом. Он начинает серьезно готовиться к прослушиванию и занимается с китайской пианисткой-виртуозом. Она ни слова не говорит по-французски, музыка единственное их средство общения. Желание перемен приводит к тому, что он начинает мечтать о прекрасной любви... Но пока что Тому приходится жить двойной жизнью - днем он играет на рояле, а по вечерам, вооружившись бейсбольной битой, помогает отцу выбивать деньги из должников и выгонять иммигрантов-нелегалов из пустующих квартир




Год выхода: 2005
Перевод: Профессиональный многоголосый закадровый

Кодек: MPEG-4 AVC
Субтитры: Русские, английские

РелизРип от:Звук: Русский (AC3, 6 ch, 384 Кбит/с), французский (AC3, 6 ch, 640 Кбит/с)
В ролях: Ромен Дюри, Нильс Ареструп, Джонатан Цассаи, Жиль Коэн, Лин Дэн Пэм, Ор Атика, Эммануэль Дево, Мелани Лоран, Агнес Обе, Этьен Диран

Видео: 14,6 Мбит/с, 1920x1036
Страна: Франция

Если у вас возникли проблемы с закачкой Мое сердце биться перестало / De battre mon coeur s'est arrete (2005) BDRip 1080p | P, перейдите по ссылке - там вы найдете решение своей проблемы.

Категория: Зарубежные фильмы

 

Скачать Мое сердце биться перестало / De battre mon coeur s'est arrete (2005) BDRip 1080p | P бесплатно без регистрации

 

Информация
Посетители, находящиеся в группе Гости, не могут оставлять комментарии к данной публикации.
 
 
Скачать Мое сердце биться перестало / De battre mon coeur s'est arrete (2005) BDRip 1080p | P бесплатно без регистрацииCopyright © 2019 .